<?xml version="1.0" standalone="no"?>
<!DOCTYPE svg PUBLIC "-//W3C//DTD SVG 1.1//EN" "http://www.w3.org/Graphics/SVG/1.1/DTD/svg11.dtd" >
<svg xmlns="http://www.w3.org/2000/svg">
  <metadata>Created by iconfont</metadata>
  <defs>
  <font id="iconfont" horiz-adv-x="1024">
    <font-face
      font-family="iconfont"
      font-weight="400"
      font-stretch="normal"
      units-per-em="1024"
      ascent="896"
      descent="-128"
    />
      <missing-glyph />
      
      <glyph glyph-name="boke1" unicode="&#58998;" d="M0 896m103.424 0l817.152 0q103.424 0 103.424-103.424l0-817.152q0-103.424-103.424-103.424l-817.152 0q-103.424 0-103.424 103.424l0 817.152q0 103.424 103.424 103.424ZM102.4 588.8h94.487273c29.851152 0 52.472242-2.327273 67.863272-6.981818 15.36-4.654545 27.772121-14.056727 37.236364-28.237576 9.433212-14.180848 14.149818-37.019152 14.149818-68.514909 0-21.286788-3.320242-36.150303-9.991757-44.528485-6.671515-8.409212-19.859394-14.863515-39.501576-19.362909 21.907394-4.964848 36.770909-13.156848 44.559515-24.638061 7.788606-11.481212 11.698424-29.075394 11.698424-52.751515v-33.760969c0-24.60703-2.792727-42.821818-8.440242-54.675394-5.616485-11.853576-14.584242-19.952485-26.872243-24.296728-12.31903-4.344242-37.515636-6.516364-75.620848-6.516363H102.4V588.8z m94.735515-62.339879v-80.989091c4.033939 0.155152 7.19903 0.217212 9.433212 0.217212 9.309091 0 15.204848 2.296242 17.780364 6.888728 2.544485 4.561455 3.816727 17.656242 3.816727 39.253333 0 11.388121-1.05503 19.393939-3.13406 23.955394-2.110061 4.561455-4.840727 7.447273-8.223031 8.688485-3.382303 1.179152-9.929697 1.861818-19.673212 1.985939z m0-137.681454v-101.934546c13.34303 0.465455 21.845333 2.544485 25.53794 6.299152 3.661576 3.754667 5.492364 12.970667 5.492363 27.67903V354.831515c0 15.608242-1.644606 25.041455-4.964848 28.361697-3.289212 3.289212-11.977697 5.15103-26.065455 5.585455zM447.767273 588.8v-364.295758h-93.587394V588.8h93.587394z m238.281697-170.542545v-73.138425c0-26.841212-1.334303-46.545455-4.03394-59.050666-2.699636-12.536242-8.502303-24.203636-17.345939-35.095273-8.843636-10.860606-20.200727-18.928485-34.071273-24.079515-13.870545-5.182061-29.820121-7.757576-47.817697-7.757576-20.107636 0-37.143273 2.172121-51.075879 6.640485-13.963636 4.406303-24.793212 11.077818-32.519757 20.014545a79.127273 79.127273 0 0 0-16.539152 32.395637c-3.289212 12.691394-4.964848 31.681939-4.964848 57.033697v76.489697c0 27.772121 3.009939 49.431273 8.998788 65.039515 6.019879 15.608242 16.818424 28.113455 32.426666 37.546666 15.608242 9.464242 35.529697 14.211879 59.857455 14.211879 20.386909 0 37.888-3.04097 52.534303-9.122909 14.615273-6.081939 25.910303-13.963636 33.82303-23.738182 7.974788-9.743515 13.405091-19.797333 16.35297-30.161454 2.916848-10.333091 4.375273-26.065455 4.375273-47.228121z m-90.918788 22.496969c0 15.297939-0.806788 24.948364-2.482424 28.920243-1.613576 3.971879-5.15103 5.957818-10.550303 5.957818-5.399273 0-8.998788-1.985939-10.798546-5.957818-1.799758-3.971879-2.699636-13.653333-2.699636-28.920243v-134.764606c0-14.118788 0.899879-23.303758 2.699636-27.585939 1.799758-4.251152 5.337212-6.392242 10.550303-6.392243 5.430303 0 8.998788 1.923879 10.705455 5.833697 1.737697 3.909818 2.606545 12.31903 2.606545 25.196606V440.785455z m327.369697 82.354424v-229.934545c0-31.061333-0.682667-51.137939-2.110061-60.198788-1.427394-9.091879-6.516364-18.680242-15.204848-28.827151-8.688485-10.115879-20.790303-17.842424-36.305455-23.148606-15.515152-5.337212-35.064242-8.005818-58.647273-8.005819-28.920242 0-52.19297 4.933818-69.72509 14.739394-17.563152 9.836606-26.624 29.168485-27.244607 57.933576h88.219152c0-13.187879 4.778667-19.797333 14.398061-19.797333 6.888727 0 11.481212 2.01697 13.715394 6.081939 2.265212 4.033939 3.382303 12.536242 3.382303 25.444849v22.465939a86.512485 86.512485 0 0 0-24.638061-15.949576c-8.626424-3.599515-17.687273-5.399273-27.120485-5.399272-16.35297 0-29.789091 3.289212-40.370424 9.898666a50.641455 50.641455 0 0 0-21.721212 25.972364c-3.909818 10.736485-5.864727 26.003394-5.864728 45.800727v108.450909c0 28.330667 5.12 48.717576 15.29794 61.191758 10.24 12.443152 25.755152 18.680242 46.576485 18.680242 11.419152 0 21.814303-2.327273 31.185454-6.981818 9.371152-4.654545 17.718303-11.636364 25.072485-20.914424l6.516364 22.496969h84.619636z m-91.10497-79.220363c0 13.653333-0.775758 22.341818-2.358303 26.096485-1.551515 3.754667-5.057939 5.647515-10.457212 5.647515-5.275152 0-8.967758-2.172121-11.170909-6.423273-2.172121-4.282182-3.227152-12.722424-3.227152-25.320727v-100.352c0-13.34303 0.806788-22.000485 2.482425-25.972364 1.644606-3.971879 5.08897-5.957818 10.33309-5.957818 5.988848 0 9.929697 2.389333 11.698425 7.19903 1.799758 4.809697 2.699636 15.670303 2.699636 32.612849v92.470303z"  horiz-adv-x="1024" />
      
      <glyph glyph-name="lajitong1" unicode="&#58935;" d="M830.104 657.144v-662.944c0-49.832-40.392-90.192-90.16-90.192h-455.792c-49.768 0-90.16 40.368-90.16 90.192v662.944M511.944 657.144v-753.144h228c49.768 0 90.16 40.368 90.16 90.192v662.952h-318.16zM320.16 454.496h63.152v-347.856h-63.152zM480.432 454.496h63.16v-347.856h-63.16zM640.72 454.496h63.16v-347.856h-63.16zM896.088 593.896h-768.176c-34.349 0.691-61.929 28.699-61.929 63.148 0 34.449 27.58 62.457 61.864 63.147l768.24 0.001c34.571-0.402 62.441-28.52 62.441-63.148s-27.87-62.746-62.403-63.148zM512.032 720.192h384.048c0.002 0 0.005 0 0.008 0 34.873 0 63.144-28.271 63.144-63.144 0-0 0-0 0-0 0-0.005 0-0.010 0-0.016 0-34.869-28.267-63.136-63.136-63.136-0.006 0-0.011 0-0.017 0l-384.047-0v126.296zM324.968 742.952c0 49.424 83.744 121.048 187.064 121.048 103.288 0 187.024-71.624 187.024-121.048M512.032 742.952h187.024c0.008 49.424-83.736 121.048-187.024 121.048z"  horiz-adv-x="1024" />
      
      <glyph glyph-name="bijiben1" unicode="&#58927;" d="M886.9 677.4h50.5V31h-50.5zM932.1 697.6l-19.9 45.6-19.9-45.6h39.8z m-19.9-727.2c13.9 0 25.3 11.3 25.3 25.3v15.1H887v-15.1c-0.1-14 11.2-25.3 25.2-25.3z m25.2 60.6V677.4h-50.5V31h50.5z m-25.2-80.8c-25 0-45.5 20.4-45.5 45.5V687.5c0 1.6 0.5 3.1 1.2 4.5 0.1 0.3 0.1 0.7 0.3 1l30 68.8c2.4 5.5 7.9 9 13.9 9s11.4-3.5 13.8-9l30.1-68.9c0.1-0.2 0.2-0.6 0.3-0.9 0.7-1.3 1.2-2.8 1.2-4.5v-691.9c0.1-25-20.3-45.4-45.3-45.4zM796 707.3v-736.4c-160.3 79.3-261.8 37.6-343.4-0.6V755.6C567.1 785 672.9 799.9 796 707.3zM432.4 755.6v-785.4c-47.6 22.2-101.9 45.7-170.7 45.7-49.2 0-105.8-12-172.7-45V707.3c123.1 92.6 228.9 77.7 343.4 48.3zM796-29.1V707.3C672.9 799.9 567.1 785 452.6 755.6v-785.4c81.6 38.2 183.1 79.9 343.4 0.7z m-534.3 45c68.8 0 123.1-23.4 170.7-45.7V755.6C317.9 785 212.1 799.9 89 707.3v-736.4c66.9 33 123.5 45 172.7 45zM72.8 720.2c133.8 103 246.7 85.6 369.8 53.6 122.9 31.9 235.9 49.4 369.8-53.6 2.4-1.8 3.9-4.8 3.9-8v-757.9c0-3.5-1.9-6.9-4.9-8.7-1.5-0.9-3.3-1.4-5.2-1.4-1.6 0-3.2 0.4-4.7 1.2-166.8 88.3-264.2 42.3-350.2 1.8l-3-1.4c-1.5-0.7-3.4-1-5.3-0.9-2.1-0.2-4.2 0-6.2 0.9l-2.9 1.4c-86 40.5-183.4 86.5-350.2-1.8-1.5-0.8-3.1-1.2-4.7-1.2-1.8 0-3.6 0.5-5.3 1.4-3 1.8-4.8 5.2-4.8 8.7V712.2c-0.1 3.1 1.3 6.2 3.9 8z"  horiz-adv-x="1024" />
      
      <glyph glyph-name="lajitong" unicode="&#58890;" d="M802.3 573.9l-34.5 206.8c-1.4 8.3-8.6 14.4-17 14.4H268.2c-8.4 0-15.6-6.1-17-14.4l-34.5-206.8c-0.8-5 0.6-10.1 3.8-14 3.3-3.9 8.1-6.1 13.2-6.1h551.6c5 0 9.9 2.2 13.1 6.1 3.3 3.9 4.7 9 3.9 14zM798.3 513.4c-3.3 3.7-8 5.9-13 5.9H233.7c-5 0-9.7-2.1-13-5.9-3.3-3.7-4.8-8.7-4.1-13.6l69-517.1c1.1-8.6 8.4-15 17.1-15h413.7c8.6 0 15.9 6.4 17.1 15l68.9 517.1c0.6 4.9-0.9 9.9-4.1 13.6zM837 588.2H182c-9.5 0-17.2-7.7-17.2-17.2v-69c0-9.5 7.7-17.2 17.2-17.2h655c9.5 0 17.2 7.7 17.2 17.2v69c0 9.5-7.7 17.2-17.2 17.2zM354.3 795.1h310.3v-103.4H354.3zM337.1 657.2h344.7c9.5 0 17.2 7.7 17.2 17.2V795.1h-34.5v-103.4H354.3V795.1h-34.5v-120.6c0.1-9.6 7.8-17.3 17.3-17.3zM587.4 178.79999999999995l2.4-15.4c10.2-4 10-0.6 20.1 0.8-27.7-45.9-86.3-67.9-139-48.3-20.6 7.7-28.6 16.5-42.5 25.8-7.4-3.8-13.6-8.9-17-16.7 57.8-55.4 143.7-53.9 199.5 0.3 9.6 9.3 13.9 17.6 22.1 26.7l5-17 17.4 2.8c-0.4 9.7-2.8 15.3-5 24.4-2.9 11.6-1.5 16.2-11.7 20.6-18.7 8-33.7 0-51.3-4zM514.7 315.9l11.7 11.4c-4.8 7.3-5.6 5.1-9.6 13.8 54.7-0.6 96.3-42 107.5-87 6.4-25.6 0.8-36.3 0.9-60.1l23-5.9c8.3 55.6-0.5 93.2-27.6 126.7-22.2 27.5-57.9 50.3-106.3 52 4.7 7.1 7 7.4 11.2 14.9-4.2 7.2-4.7 6.7-10.2 12.2-7.7-3.6-32.2-22.8-30.5-38.9 1.8-18 19-34 29.9-39.1zM386.4 157.39999999999998l-19 2.8-3.8-15.2c10.8-7.7 37.7-15.5 47.7-7.9 12 9.2 21.9 31.6 18.6 46.7l-13.9 4.5c-0.4-0.7-0.9-1-1.1-2l-2.7-5.6c-2.2-4.9-0.8-3.7-3.7-8.5-26.2 27.1-25.5 136.3 71.2 166l-3.9 23.9c-81.8-19.4-133.6-111.8-89.4-204.7z"  horiz-adv-x="1024" />
      
      <glyph glyph-name="bijiben" unicode="&#58930;" d="M829.8-11.2h-647v786h647c5.5 0 10-4.5 10-10v-766c0-5.5-4.5-10-10-10zM781.2 774.8v-703.9c0-13-10.5-23.5-23.5-23.5H182.9v-58.7h598.3c32.4 0 58.7 26.3 58.7 58.7V716.1c-0.1 32.4-26.4 58.7-58.7 58.7zM575.9 704.4H341.2c-6.5 0-11.7 5.3-11.7 11.7 0 6.5 5.3 11.7 11.7 11.7h234.6c6.5 0 11.7-5.3 11.7-11.7 0.1-6.5-5.2-11.7-11.6-11.7zM634.5 716.1m-11.7 0a11.7 11.7 0 1 1 23.4 0 11.7 11.7 0 1 1-23.4 0ZM781.2 792.4H182.9c-9.7 0-17.6-7.9-17.6-17.6v-786c0-9.7 7.9-17.6 17.6-17.6h598.3c42 0 76.3 34.2 76.3 76.3V716.1c-0.1 42.1-34.3 76.3-76.3 76.3z m41-745c0-22.6-18.4-41.1-41.1-41.1H306v135c0 9.7-7.9 17.6-17.6 17.6-9.7 0-17.6-7.9-17.6-17.6v-134.9h-70.4V757.2h70.4v-510.3c0-9.7 7.9-17.6 17.6-17.6 9.7 0 17.6 7.9 17.6 17.6V757.2h475.1c22.6 0 41.1-18.4 41.1-41.1v-668.7zM634.5 587.1H470.3c-9.7 0-17.6-7.9-17.6-17.6 0-9.7 7.9-17.6 17.6-17.6h164.2c9.7 0 17.6 7.9 17.6 17.6 0 9.7-7.9 17.6-17.6 17.6zM634.5 493.2H470.3c-9.7 0-17.6-7.9-17.6-17.6 0-9.7 7.9-17.6 17.6-17.6h164.2c9.7 0 17.6 7.9 17.6 17.6 0 9.7-7.9 17.6-17.6 17.6z"  horiz-adv-x="1024" />
      
      <glyph glyph-name="xieboke1" unicode="&#59014;" d="M99.006512 896h742.757209a98.946977 98.946977 0 0 0 99.006512-99.006512v-825.986976a98.946977 98.946977 0 0 0-99.006512-99.006512H99.006512A98.946977 98.946977 0 0 0 0-28.993488V796.993488A98.946977 98.946977 0 0 0 99.006512 896zM544.625116 425.436279H231.173953a41.317209 41.317209 0 0 1 0-82.574884H544.744186a41.317209 41.317209 0 1 1 0 82.574884z m-131.988837-214.325581H231.173953a41.317209 41.317209 0 1 1 0-82.574884h181.462326a41.317209 41.317209 0 1 1 0 82.574884z m297.07907 429.008372H231.173953a41.317209 41.317209 0 0 1 0-82.574884h478.541396a41.317209 41.317209 0 1 1 0 82.574884zM1111.456744 428.413023a107.817674 107.817674 0 0 1-6.727442 22.027907v0.714419a175.985116 175.985116 0 0 1-29.767442 44.651163 145.741395 145.741395 0 0 1-38.04279 31.613023 118.057674 118.057674 0 0 1-21.015814 8.573023 114.723721 114.723721 0 0 1-27.386047 4.703256h-3.750697a95.732093 95.732093 0 0 1-60.606512-21.789767l-0.595349-0.47628-0.595349-0.476279c-4.822326-4.107907-10.597209-9.346977-16.788837-15.419535s-10.418605-10.061395-14.407442-13.931162l-4.107907-3.988838-2.976744-3.095813-31.970232-30.481861 1.250232-1.250232-2.619535-2.738605-112.104186-115.914419-42.269767-43.63907-38.042791-39.293023c-11.906977-11.906977-21.373023-22.146977-29.231628-30.48186l-12.56186-13.15721-1.726512-1.845581a134.489302 134.489302 0 0 1-17.860465-22.027907 145.086512 145.086512 0 0 1-10.299535-19.646512 175.925581 175.925581 0 0 1-9.227907-23.813953c-2.976744-9.049302-5.953488-19.051163-9.108837-29.767442s-5.953488-20.420465-8.453954-30.124651a248.08186 248.08186 0 0 1-6.489302-29.112558 76.204651 76.204651 0 0 1 13.454884-60.427907 65.131163 65.131163 0 0 1 53.105116-24.528372c3.631628 0 7.44186 0 11.430698 0.595349h2.024186c5.953488 1.012093 14.169302 2.857674 25.71907 5.953488 9.823256 2.619535 20.301395 5.953488 31.970232 9.704186s21.373023 7.44186 31.493954 11.192558 19.051163 7.739535 25.36186 10.835349a116.271628 116.271628 0 0 1 23.813954 14.824186c5.00093 3.869767 9.585116 7.858605 13.693023 11.549767s7.739535 7.203721 16.074418 15.776745 16.788837 17.562791 27.981396 29.231628c10.061395 10.716279 21.789767 22.623256 36.971163 37.92372l0.357209 0.35721v0.357209l41.674418 43.63907 111.925582 115.676279 36.197209 37.447442 0.357209 0.357209c3.214884 2.857674 6.727442 5.953488 10.299535 9.942326 2.262326 2.262326 4.822326 5.00093 7.858605 7.858604s7.620465 7.56093 11.906977 11.906977l0.773953 0.773954 0.773954 0.773953a96.922791 96.922791 0 0 1 18.515349 30.481861 93.588837 93.588837 0 0 1 5.953488 32.982325 114.545116 114.545116 0 0 1-2.202791 25.004651zM872.84093 192.535814l-41.674418-43.63907a3753.257674 3753.257674 0 0 1-65.190698-67.453023c-7.322791-7.620465-11.906977-11.906977-13.03814-12.91907a186.522791 186.522791 0 0 0-11.906976-10.180465 67.214884 67.214884 0 0 0-14.050233-8.692093c-4.822326-2.500465-11.906977-5.477209-21.373023-9.227907s-19.170233-7.084651-29.767442-10.478139-20.003721-6.370233-29.231628-8.811163-16.074419-4.107907-20.658605-4.822326a46.496744 46.496744 0 0 0-5.596279-0.357209 15.717209 15.717209 0 0 0-13.038139 4.584186 26.373953 26.373953 0 0 0-2.619535 19.884651 197.417674 197.417674 0 0 0 4.941395 21.908837c2.619535 9.585116 5.35814 19.408372 8.334884 29.767442s5.953488 19.765581 8.573023 28.338605a116.509767 116.509767 0 0 0 6.846512 17.860465 94.422326 94.422326 0 0 0 7.084651 13.693023 87.575814 87.575814 0 0 0 11.192558 13.693023l14.645582 15.419535c7.620465 8.096744 17.146047 17.860465 28.755348 29.767442l38.042791 39.293023 42.269768 43.63907 112.104186 115.914419 97.518139-101.209303z m187.23721 197.298605a40.84093 40.84093 0 0 0-8.334884-13.454884c-4.107907-4.346047-7.977674-8.096744-11.192558-11.311628l-8.573024-8.573023c-2.738605-2.857674-5.35814-5.35814-7.858604-7.560931l-97.51814 100.733024c4.226977 3.988837 9.227907 8.692093 14.824186 14.288372s10.597209 9.942326 14.288372 13.157209a47.627907 47.627907 0 0 0 15.062326 8.334884 45.96093 45.96093 0 0 0 13.931163 2.262325h1.488372a62.094884 62.094884 0 0 0 14.526511-2.381395 77.395349 77.395349 0 0 0 11.906977-4.822325 96.327442 96.327442 0 0 0 24.230698-20.658605 125.67814 125.67814 0 0 0 20.658605-30.95814 58.344186 58.344186 0 0 0 3.333953-11.311628 68.524651 68.524651 0 0 0 1.369302-13.454883 38.102326 38.102326 0 0 0-2.143255-14.288372z"  horiz-adv-x="1114" />
      
      <glyph glyph-name="boke" unicode="&#58889;" d="M415.978716 444.980526q6.362805 0 27.041921 11.134909 19.883765 11.134909 31.814025 11.134908a28.302552 28.302552 0 0 0 7.953506-0.79535 42.865421 42.865421 0 0 0 16.702363 5.567454h4.772104q-8.748857-26.24657-39.767531-36.586128-15.111662-4.772104-70.786205-11.134909a328.300851 328.300851 0 0 1-48.516387-11.930259 197.187302 197.187302 0 0 0-42.153583-8.748857 127.256099 127.256099 0 0 0-15.907012 1.590701 131.145363 131.145363 0 0 1-16.702363 1.590701q-19.088415 0-26.246571-14.316311-3.976753-9.544207-7.158155-36.586128l-3.181403-30.223324q0-26.24657 45.334985-33.404725 15.111662 24.655869 81.125763 49.311738 94.646723 34.200077 159.865474 46.925686-10.339558-146.344513-8.748857-136.004955-31.018674-3.181402-44.539634-3.976753 0 19.883765-23.065168 55.674543l-16.702363 27.041921a32.728678 32.728678 0 0 1-19.883765 7.158155 33.170097 33.170097 0 0 1-25.45122-12.72561 52.175 52.175 0 0 1-11.930259-27.837271q-84.307165-27.837272-105.781632-47.721037 12.72561-7.158156 99.418827-14.316311 4.772104 0 38.176829-4.772104a118.451567 118.451567 0 0 0 19.088415-5.567454q11.134909-3.181402 15.907012-3.976753a88.144732 88.144732 0 0 1 17.497714 3.181402 86.693217 86.693217 0 0 0 19.088415 3.181403l19.088415 0.79535a45.251473 45.251473 0 0 0 18.293064-3.181402q25.45122-43.744284 42.153582-43.744284 29.427973 0 29.427973 40.562881a229.979607 229.979607 0 0 1-6.362805 42.153583 219.731515 219.731515 0 0 0-6.362805 44.539635v4.772103a79.507224 79.507224 0 0 0 1.590702 12.72561 81.543322 81.543322 0 0 1 1.590701 13.520961v16.702363a56.577266 56.577266 0 0 0 12.72561 27.04192 52.182954 52.182954 0 0 0 43.744284 22.269818 136.251514 136.251514 0 0 0 38.97218-7.953506 126.460748 126.460748 0 0 1 36.586128-7.953507 46.977384 46.977384 0 0 1 10.339558 0.795351 42.070071 42.070071 0 0 1 7.158156 23.065168q0 15.111662-19.088415 35.790778-22.269817 23.860518-25.45122 34.200076-3.976753 0-58.855945 10.339558a98.31329 98.31329 0 0 1-15.111662 1.590701h-1.590701a0.699909 0.699909 0 0 1 0.79535-0.79535q38.97218-14.316311 42.153583-31.018674-7.953506-3.976753-37.381479-3.976753a67.700244 67.700244 0 0 1-21.474467-2.386052q-12.72561 16.702363-18.293064 19.088415a16.86541 16.86541 0 0 0-8.748857-1.590702 67.557081 67.557081 0 0 0-12.725609 1.590702 208.262559 208.262559 0 0 0 22.269817 22.269817 118.535079 118.535079 0 0 1 22.269817 24.655869 117.361937 117.361937 0 0 1 4.772104 12.72561 79.137386 79.137386 0 0 0 5.567454 12.72561 163.583738 163.583738 0 0 0 11.134909 13.52096 160.625034 160.625034 0 0 1 11.930259 12.72561q51.69779 65.218751 51.69779 104.190931 0 50.107089-65.218751 50.107089a110.15606 110.15606 0 0 1-31.814024-4.772104 27.212921 27.212921 0 0 1-7.158156-3.181403 34.100658 34.100658 0 0 0-7.158155-3.976753q-9.544207-2.386052-27.837272-5.567454a158.911053 158.911053 0 0 1-27.837271-5.567454 50.266159 50.266159 0 0 1 1.590701 16.702363v6.362805q1.590701 0.795351 46.925686 10.339558 30.223323 5.567454 31.814025 23.065168v1.590701q0-7.953506-5.567454 25.451219l-4.772104 28.632623a186.708557 186.708557 0 0 0-7.158156 20.679116l0.795351 4.772103q2.386052 9.544207 19.088415 19.088415 16.702363 10.339558 19.883765 21.474467a281.768863 281.768863 0 0 1-38.97218-12.72561 211.205356 211.205356 0 0 0-39.767531-11.134909q4.772104-2.386052-22.269817 32.609376a88.411175 88.411175 0 0 1-19.883766 2.386051q-49.311738 0-56.469893-54.083841a13.874892 13.874892 0 0 1 5.567454-5.567455 18.412367 18.412367 0 0 0 5.567454-4.772103q-8.748857-5.567454-44.539634-13.520961-29.427973-5.567454-37.381479-20.679116l-2.386052-8.748857a30.887441 30.887441 0 0 0-2.386052-9.544207q7.158156-4.772104 7.158156-23.065168l-0.795351-11.134909a55.773962 55.773962 0 0 1 2.386052-17.497713 224.610991 224.610991 0 0 1-62.832699-14.316311q-44.539635-15.111662-58.855945-18.293064a87.067032 87.067032 0 0 1 3.976753 17.497713 49.594088 49.594088 0 0 0 3.181402 15.111662 132.402017 132.402017 0 0 0 15.907012 19.883765 33.834215 33.834215 0 0 1 10.339558 23.065168 24.445101 24.445101 0 0 1-0.79535 7.158156q-7.953506 4.772104-19.883766 29.427972-10.339558 21.474467-22.269817 24.65587a11.278072 11.278072 0 0 1-4.772104 0.79535l-13.52096-1.590701a31.078325 31.078325 0 0 0-10.339558 2.386052 143.493181 143.493181 0 0 1-18.293064-11.930259 93.421883 93.421883 0 0 0-18.293064-11.93026q-2.386052-9.544207-16.702363-26.24657a48.094852 48.094852 0 0 1-13.520961-29.427973l49.311738-35.790778a224.125827 224.125827 0 0 1-4.772103-25.451219l-4.772104-26.246571q-12.72561-2.386052-72.376906-17.497713a652.815832 652.815832 0 0 0-73.967607-15.111662 35.393102 35.393102 0 0 0-11.134909-9.544207 16.702363 16.702363 0 0 1-9.544207-9.544208 11.067304 11.067304 0 0 1-0.795351-4.772103 46.166127 46.166127 0 0 1 2.386052-11.134909 57.20957 57.20957 0 0 0 1.590701-11.930259 20.897837 20.897837 0 0 0-0.795351-6.362805c0-1.069747-1.328236-1.590701-3.976753-1.590701a3.388194 3.388194 0 0 1-3.181402-3.181403l0.79535-3.976753a17.18355 17.18355 0 0 0-3.976753-8.748857 32.072514 32.072514 0 0 1-5.567454-9.544207v-3.976753a149.744637 149.744637 0 0 1 3.181403-22.269818 148.833961 148.833961 0 0 0 3.181402-25.451219l-0.795351-14.316311q1.590701-13.52096 16.702363-27.041921 15.111662-12.72561 27.837272-12.72561h0.795351q11.930259 0 28.632622 16.702363a123.048694 123.048694 0 0 1 14.316311 15.907012 99.915921 99.915921 0 0 0 15.111662 15.111662q15.111662 11.930259 66.014101 20.679116-7.953506-33.404726-9.544208-96.237425-3.181402-82.716464-4.772103-101.009528-8.748857 0-26.246571 1.590701-18.293064 1.590701-26.24657 1.590701a72.901838 72.901838 0 0 1-12.72561-0.79535q53.288491-15.111662 49.311738-14.316311 9.544207-12.72561 12.72561-47.721037 3.181402-31.018674 13.520961-40.562882a33.360982 33.360982 0 0 1 24.655869-9.544207q30.223323 0 30.223323 26.24657a89.079269 89.079269 0 0 1-3.976753 21.474467 75.61796 75.61796 0 0 0-4.772104 20.679116v1.590701a24.918335 24.918335 0 0 0 1.590702 7.158156 37.488851 37.488851 0 0 1 0.79535 7.158155q-0.795351 4.772104-3.181402 13.520961a103.073463 103.073463 0 0 0-3.976753 14.316311 531.178886 531.178886 0 0 0-3.181403 62.832698 744.193665 744.193665 0 0 0 12.72561 142.367761q18.293064 15.907012 59.651296 24.655869 41.358232-23.860518 46.925687-24.655869 70.786205-86.693217 62.832698-76.353659a32.012862 32.012862 0 0 1-3.976753 10.339558 71.907649 71.907649 0 0 0-4.772103 9.544207 100.289736 100.289736 0 0 0 15.111661-14.316311q9.544207-10.339558 17.497714-10.339558h0.79535z m119.302593 62.037348q-6.362805 11.930259-24.655869 11.930259a28.032132 28.032132 0 0 1-15.907013-4.772103 24.039472 24.039472 0 0 0-0.79535 7.158155q0 19.883765 23.065168 28.632622l21.474466 6.362805a96.774286 96.774286 0 0 1 19.883766 6.362805 78.70392 78.70392 0 0 1-6.362805 19.088415 49.005528 49.005528 0 0 0-4.772104 18.293064q0.795351 18.293064 31.814025 42.153583a6.323037 6.323037 0 0 1 0.79535 3.976753 4.056288 4.056288 0 0 0 1.590702 3.976753l11.930259 3.976753q-7.953506 0-90.66997-30.223323v3.976753q0 15.907012 31.814024 28.632622 3.976753 10.339558 33.404726 24.655869a14.316311 14.316311 0 0 1-8.748857 2.386052q-11.930259 0-12.725609-7.953506l-11.93026 9.544207q6.362805 11.930259 32.609376 11.930259a9.055067 9.055067 0 0 1 3.181402 4.772104 6.565619 6.565619 0 0 0 2.386052 4.772104 97.828126 97.828126 0 0 0 35.790778 7.158155q42.153583 0 42.153582-31.018674a38.17683 38.17683 0 0 0-0.79535-8.748857q-7.158156-35.790778-51.69779-89.079269-57.265244-68.400153-62.832699-77.94436z m125.665397 245.763341q9.544207 7.158156 19.883766 40.562881-8.748857 16.702363-14.316311 49.311738 14.316311 14.316311 15.907012 19.088415h-7.158156a62.037348 62.037348 0 0 1-27.837271-7.158156 34.888055 34.888055 0 0 1-18.293064 4.772104q-31.018674 0-32.609376-23.860518 0 3.181402 11.134909-32.609376 16.702363-50.902439 45.334985-50.902439z m-300.642533-98.623477a51.121161 51.121161 0 0 1-23.065168 5.567454q-2.386052 0-28.632622-4.772103 2.386052 22.269817 58.855946 60.446647 2.386052-2.386052 7.953506-18.293065a37.858689 37.858689 0 0 1 23.860519-8.748856q11.134909 0 51.69779 24.655869a55.769985 55.769985 0 0 0 1.590701-13.520961 38.17683 38.17683 0 0 0-2.386052-13.52096z m97.032776-248.149392a52.572676 52.572676 0 0 0 11.134908-15.111662q3.976753 3.976753 15.907012 18.293064a107.272914 107.272914 0 0 0 18.293065 17.497714 9.723161 9.723161 0 0 1 5.567454-1.590701q-3.976753 0 10.339558 2.386051 7.158156-3.181402 7.158156-16.702363a52.890816 52.890816 0 0 0-2.386052-16.702363q-98.623476-13.52096-120.097943-18.293064a7.687064 7.687064 0 0 1-3.976753-3.181402 8.593763 8.593763 0 0 0-3.181403-3.976753 51.07344 51.07344 0 0 0-11.930259 3.976753l-11.930259 3.181402q9.544207 11.930259 33.404725 21.474467a313.650492 313.650492 0 0 1 38.17683 15.907012c2.111656-4.251149 3.181402-5.567454 3.181403-3.976753a2.310494 2.310494 0 0 1-0.795351-1.590701 129.475127 129.475127 0 0 0 15.111662 7.158156l0.79535-0.795351a7.436528 7.436528 0 0 0-2.386052-3.181403 6.529829 6.529829 0 0 1-2.386051-3.976753v-0.79535z m-55.674544-158.274773a221.139285 221.139285 0 0 0-22.269817-0.795351 490.274004 490.274004 0 0 0-72.376906 5.567455l68.400153 39.767531a160.660825 160.660825 0 0 0 13.520961-22.269818 221.652287 221.652287 0 0 1 12.725609-22.269817z m33.404726 247.354042q-14.316311-3.976753-23.065168-5.567455a32.3827 32.3827 0 0 0-2.386051 11.134909q0 23.065168 37.381479 23.065168h3.181402l3.181402-11.930259c1.590701 0 2.386052 1.316305 2.386052 3.976753a10.872443 10.872443 0 0 0 1.590702-7.158156 10.737233 10.737233 0 0 1 1.590701-7.158155z m15.111662 105.781632q-50.107089-16.702363-51.69779-16.702363 5.567454 12.72561 50.107089 39.767531 1.590701-3.181402 1.590701-19.088415v-3.976753z m206.79116-176.567837q-3.181402-8.748857-19.883765-10.339558l-27.837272-3.181403-8.748857 23.065168z m816.029733-87.488568q-24.655869 20.679116-63.62805 112.144437c0 1.05384-0.795351 1.590701-2.386051 1.590701-2.123586 0-3.181402 0.258489-3.181403 0.795351v0.79535h4.772104l-7.158156 10.339559a37.44113 37.44113 0 0 0-6.362805 11.930259 4.525545 4.525545 0 0 1 3.181403-1.590701c0.520955 0 0.795351 0.520955 0.79535 1.590701v0.79535a84.454305 84.454305 0 0 0-5.567454 23.065168 74.472655 74.472655 0 0 1-6.362805 23.860519v-7.158156a9.214137 9.214137 0 0 0-1.590701-6.362805 104.055721 104.055721 0 0 1-8.748857 32.609376 210.242982 210.242982 0 0 0-12.72561 31.814024l-0.79535 3.181403 0.79535 4.772103a9.997557 9.997557 0 0 1-4.772103 8.748857l-0.795351-4.772104a59.734808 59.734808 0 0 1 3.181402-16.702363q3.976753-11.930259 4.772104-15.907012l-2.386052-11.930259a21.808514 21.808514 0 0 1 3.976753-4.772104 12.196702 12.196702 0 0 0 3.976753-3.976753v-0.79535a2.246865 2.246865 0 0 0-1.590701-1.590702 1.403794 1.403794 0 0 1-1.590701-1.590701v-0.795351a32.513933 32.513933 0 0 0 12.72561-24.655869v-3.976753q-25.45122 31.814025-41.358232 108.167684a13.63231 13.63231 0 0 1 6.362805 2.386052 9.587952 9.587952 0 0 0 4.772103 2.386052h1.590702q1.590701-16.702363 7.158155-19.088415 1.590701 3.181402 1.590701 20.679116v3.976753l23.860519 6.362805q13.52096 15.907012 58.060595 40.562881 1.590701 8.748857 12.72561 20.679116 10.339558 11.134909 11.134908 20.679117 0 10.339558-9.544207 23.860518-15.111662 19.088415-69.195504 19.088415l-17.497713-0.795351q-7.953506-0.795351-138.391007-27.837271v5.567454q0 40.562881 37.381478 64.4234a61.922022 61.922022 0 0 1 4.772104 23.065168 46.452453 46.452453 0 0 1-20.679116 40.562881 83.595327 83.595327 0 0 1-15.111662 7.158156 77.459197 77.459197 0 0 0-15.907012 7.158155 45.334985 45.334985 0 0 0-6.362805 5.567455 15.907012 15.907012 0 0 1-5.567454 3.976753q-8.748857 3.181402-38.97218 3.181402a93.716163 93.716163 0 0 0-14.316311 0.795351q-54.879193-51.69779-54.879193-60.446647a16.801782 16.801782 0 0 1 7.953506-14.316311 7.742738 7.742738 0 0 1-1.590701-5.567455 26.942502 26.942502 0 0 0-1.590701-6.362804q16.702363-8.748857 26.24657-38.972181 2.386052-6.362805 7.953506-27.041921a145.899117 145.899117 0 0 1 7.953506-25.451219q-30.223323-27.041921-108.167683-46.925687-3.181402 9.544207-4.772104 41.358232-1.590701 27.837272-8.748857 38.972181-3.976753 7.158156-25.45122 26.24657-28.632622 24.655869-49.311738 24.655869-19.088415 0-44.539634-20.679116-73.967607-27.041921-73.967608-105.781632v-4.772104a2.223005 2.223005 0 0 1 1.590702-1.590701 2.565006 2.565006 0 0 0 1.590701-2.386052l-1.590701-5.567454a36.275942 36.275942 0 0 1 3.181402-11.134909 37.695642 37.695642 0 0 1-0.795351-8.748857q0-10.339558 18.293065-41.358232a55.161542 55.161542 0 0 0 11.134908-5.567454 66.769684 66.769684 0 0 1 11.134909-6.362805q46.130336-19.883765 45.334985-18.293064a12.244423 12.244423 0 0 0 2.386052-6.362805l2.386052-7.158155 9.544207-12.72561a64.821075 64.821075 0 0 0 9.544207-12.72561q17.497714-25.45122 46.130336-90.66997l-2.386052 15.907012a4.60508 4.60508 0 0 0 0.795351 3.181402 111.170132 111.170132 0 0 1 11.930259-26.24657q0-3.181402-4.772103 19.883765a10.045278 10.045278 0 0 0 3.181402-5.567454 5.567454 5.567454 0 0 1 3.181402-4.772104l-0.79535 7.158156a33.611517 33.611517 0 0 0-1.590701 8.748857 8.60967 8.60967 0 0 0 2.386051 6.362805 20.428581 20.428581 0 0 0 3.976754-9.544208 16.43592 16.43592 0 0 1 3.181402-9.544207l-1.590701 10.339558a4.573266 4.573266 0 0 0 1.590701 3.181402q1.590701-11.930259 4.772104-13.52096a23.900286 23.900286 0 0 1-0.795351 5.567454 17.847668 17.847668 0 0 0-1.590701 5.567454 4.60508 4.60508 0 0 0 0.79535 3.181403c0-4.251149 1.057816-6.362805 3.181403-6.362805a0.703885 0.703885 0 0 1 0.795351 0.795351 38.451226 38.451226 0 0 0-4.772104 16.702363q61.241997 40.562881 101.804879 42.153582v-14.316311q41.358232-10.339558 50.902439-22.269817a30.756208 30.756208 0 0 0-21.474466-7.953506 93.199185 93.199185 0 0 0-27.837272 6.362805 101.128831 101.128831 0 0 1-27.837272 6.362805 27.996342 27.996342 0 0 1-21.474466-9.544208q0.795351-17.497714 19.088415-21.474466 29.427973-7.158156 30.223323-7.953507a487.764673 487.764673 0 0 0-43.744284-32.609375 43.255143 43.255143 0 0 1-27.837271 9.544208 81.420043 81.420043 0 0 1-48.516388-16.702363q-23.860518-18.293064-23.860519-38.972181a34.911915 34.911915 0 0 1 4.772104-16.702363 534.921011 534.921011 0 0 1-54.879192-31.814024 304.989124 304.989124 0 0 0-57.265245-30.223324 51.029696 51.029696 0 0 0-3.181402 15.111662q0 25.45122 22.269817 58.855946l19.883765 27.837271q11.930259 16.702363 17.497714 25.45122-78.739711-85.102516-78.739711-147.139864a24.711544 24.711544 0 0 1 6.362805-18.293064h7.158155q15.111662 0 54.083842 27.041921h2.386052a33.43654 33.43654 0 0 1 23.860519 11.134908 135.348791 135.348791 0 0 0 17.497713 15.111662l3.976753 0.795351a4.577243 4.577243 0 0 1 3.181403 0.79535q2.386052 1.590701 15.111661 12.72561a40.861138 40.861138 0 0 0 18.293065 9.544208l13.52096-7.158156q-158.274773-90.66997-169.409681-93.056022a30.513626 30.513626 0 0 1 0.79535-10.339558q42.153583 11.134909 92.260672 46.130336 64.4234 44.539635 84.307165 54.083842 5.567454-7.953506 22.269818-11.93026a113.444835 113.444835 0 0 0 24.655869-8.748856q10.339558-7.158156 27.837271-35.790778 11.930259-19.088415 23.860519-40.562882v1.590702a23.816774 23.816774 0 0 1-0.795351 5.567454l-0.79535 4.772104a3.181402 3.181402 0 0 0 1.590701 3.181402 25.892639 25.892639 0 0 0 4.772103-7.953506 26.000012 26.000012 0 0 1 3.976754-7.953506v3.976753q0 24.655869 2.386051 29.427973h3.181403a94.018396 94.018396 0 0 1 25.45122 4.772103 109.36071 109.36071 0 0 0 22.269817 3.976753 25.29215 25.29215 0 0 0 12.72561-3.181402l19.088414-43.744284q35.790778-12.72561 32.609376-12.72561a24.305915 24.305915 0 0 1 7.158155 0.795351q8.748857 3.181402 19.088415 33.404726 16.702363 45.334985 78.739711 104.986281 97.032775-77.14901 133.618904-77.14901 7.953506 0 17.497713 15.111662 8.748857 13.52096 8.748857 17.497714 0 10.339558-36.586128 69.990854v-11.134909z m-73.172257 23.065168q-23.860518 0.795351-45.334985 20.679116-25.45122 23.065168-38.97218 27.041921-0.795351 5.567454-15.111662 18.293064l-25.45122 2.386052a20.734791 20.734791 0 0 1-8.748857-4.772104 13.345983 13.345983 0 0 0-7.158155-4.772103l-5.567454-0.795351q-11.930259 0-32.609376 9.544207-23.065168 11.134909-31.018674 11.93026l-0.79535 1.590701q0 2.386052 12.725609 12.72561 90.66997 90.66997 103.395581 110.553735a139.953871 139.953871 0 0 0-6.362805 20.679116l15.907012 7.158156a55.101891 55.101891 0 0 1 15.111662 7.953506q9.544207-39.767531 34.995427-120.097943 24.655869-76.353659 34.995427-120.097943z m-74.762958 338.024012l2.386052 0.795351a2.966658 2.966658 0 0 0 1.590701-2.386052 6.323037 6.323037 0 0 1 0.795351 3.976753l-0.795351 10.339558a4.219335 4.219335 0 0 0 4.772104 4.772104c1.057816 0 1.590701-0.795351 1.590701-2.386052l-0.795351-3.976753c0-2.127563 0.520955-3.181402 1.590702-3.181403a25.053544 25.053544 0 0 1 1.590701 5.567454 10.840629 10.840629 0 0 0 2.386052 5.567455 219.997957 219.997957 0 0 0 50.107089 6.362805q34.995427 0 46.925686-15.907013-1.590701-3.976753-75.558309-70.786204a15.390034 15.390034 0 0 0-2.386051 10.339558c-1.069747 0-1.590701-2.660448-1.590702-7.953507v-1.590701a9.146532 9.146532 0 0 0-1.590701 6.362805 25.594383 25.594383 0 0 1-1.590701 5.567454q-1.590701-1.590701-1.590701-18.293064v-3.976753q-13.52096-7.953506-11.93026-6.362805a105.900935 105.900935 0 0 0-2.386051 22.269817l1.590701 34.995428a72.806395 72.806395 0 0 1-3.976753 27.041921 333.275769 333.275769 0 0 1-3.181403-42.153583q-1.590701-30.223323-3.181402-42.153583a24.234333 24.234333 0 0 0-2.386052 7.158156 4.573266 4.573266 0 0 1-1.590701-3.181403l1.590701-11.134908a246.956366 246.956366 0 0 1-33.404726-21.474467q-10.339558 1.590701-27.041921 17.497714-17.497714 16.702363-27.837272 18.293064a24.445101 24.445101 0 0 1-7.158155 0.79535q-12.72561 0-31.814025-22.269817a11.278072 11.278072 0 0 1-4.772103 0.795351 8.641484 8.641484 0 0 1-9.544208-7.158156 100.802737 100.802737 0 0 1-28.632622 15.907012q97.032775 46.130336 159.865474 68.400153l-5.567454 0.795351a100.166457 100.166457 0 0 1-17.497714-2.386052 113.735138 113.735138 0 0 0-18.293064-2.386052 24.464985 24.464985 0 0 0-10.339558 1.590702l-37.381479-14.316311a39.687996 39.687996 0 0 1-12.72561 4.772103 24.178659 24.178659 0 0 0-12.72561 4.772104 3.213216 3.213216 0 0 0 3.976753 3.181402 15.907012 15.907012 0 0 0 7.158156-1.590701q63.628049 33.404726 111.349086 34.200077v-15.111662z m-90.66997-324.503052q-40.562881-76.353659-43.744284-78.739711-17.497714-10.339558-56.469894-11.930259v3.976753a280.961582 280.961582 0 0 1-6.362805 34.995427q28.632622 34.200077 106.576983 51.69779z m-167.81898 130.437502a114.614001 114.614001 0 0 1-24.655869-19.088415 180.071356 180.071356 0 0 0-22.269818-19.088415 11.437142 11.437142 0 0 0-3.976753 9.544207l3.976753 18.293065 2.386052 21.474466q16.702363 50.107089 108.963035 86.693217-2.386052-11.134909-17.497714-24.655869-15.907012-15.111662-19.883765-23.860518a28.851344 28.851344 0 0 1-2.386052-8.748857l-2.386052-8.748857a89.329804 89.329804 0 0 0-12.72561-14.316311 32.096374 32.096374 0 0 1-9.544207-17.497713z m147.935214-103.395581q-18.293064-4.772104-56.469893-17.497713-46.925686-13.52096-49.311739-13.520961h-5.567454q1.590701 11.134909 28.632622 31.018674 26.24657 19.088415 23.065168 18.293065a44.328867 44.328867 0 0 0 8.748857 1.590701 62.482744 62.482744 0 0 0 26.24657-7.953506 171.398058 171.398058 0 0 1 24.655869-11.93026z m139.981709 290.302975a27.896923 27.896923 0 0 1 1.590701 8.748857 58.092409 58.092409 0 0 1-3.181402 18.293064l-0.795351-14.316311a28.632622 28.632622 0 0 1 2.386052-12.72561z m-27.041921-25.451219a25.797197 25.797197 0 0 1-3.181403 11.134908v-2.386052a34.788636 34.788636 0 0 1 0.795351-11.134908z"  horiz-adv-x="2164" />
      
      <glyph glyph-name="xieboke" unicode="&#58886;" d="M143.1 796.2h597.1c44 0 79.6-35.6 79.6-79.6v-664c0-44-35.6-79.6-79.6-79.6H143.1c-44 0-79.6 35.6-79.6 79.6v664c0 44 35.6 79.6 79.6 79.6zM501.3 417.8h-252c-18.3 0-33.2-14.9-33.2-33.2s14.9-33.2 33.2-33.2h252.1c18.3 0 33.2 14.9 33.2 33.2s-14.9 33.2-33.3 33.2zM395.2 245.29999999999995H249.3c-18.3 0-33.2-14.9-33.2-33.2 0-18.3 14.9-33.2 33.2-33.2h145.9c18.3 0 33.2 14.9 33.2 33.2 0 18.3-14.9 33.2-33.2 33.2zM634 590.2H249.3c-18.3 0-33.2-14.9-33.2-33.2s14.9-33.2 33.2-33.2H634c18.3 0 33.2 14.9 33.2 33.2s-14.9 33.2-33.2 33.2zM957 420.3c-1.2 6.1-3 12.2-5.4 17.7l-0.1 0.3-0.2 0.3c-5.8 12.7-13.7 24.8-23.7 35.9-10.4 11.6-20.5 19.9-30.6 25.4-5.3 2.8-10.7 5-16.9 6.9-7.3 2.2-14.5 3.4-22 3.8-1.3 0-2.1 0.1-3 0.1-7.7 0-15.4-1.2-23.1-3.6-8.9-2.8-17.6-7.4-25.6-13.9l-0.5-0.4-0.5-0.4c-3.9-3.3-8.5-7.5-13.5-12.4-4.5-4.5-8.4-8.1-11.6-11.2l-3.3-3.2-0.1 0.1-2.4-2.5-25.7-24.5 1-1-2.1-2.2-90.1-93.2-34-35.1-30.6-31.6c-9.4-9.7-17.2-17.8-23.5-24.5l-10.1-10.6-1.4-1.5c-5.8-6-10.6-11.9-14.2-17.7-3-4.7-5.8-10.1-8.3-15.8-2.4-4.8-4.6-10.7-7.4-19.3-2.4-7.3-4.8-15.3-7.3-24.1-2.4-8.3-4.7-16.4-6.8-24.2-2.8-10.2-4.3-17.4-5.2-23.4-2.9-19.2 0.7-35.7 10.8-48.6 6-7.6 19.1-19.7 42.7-19.7 2.9 0 6 0.2 9.2 0.5l0.8 0.1 0.8 0.1c5 0.8 11.4 2.3 20.7 4.8 7.9 2.1 16.3 4.7 25.7 7.8 8.8 3 17.2 6 25.3 9 8.7 3.4 15.3 6.2 20.4 8.7 6.7 3.1 13.1 7.1 19.1 11.9 4 3.1 7.7 6.3 11 9.3 2.8 2.4 6.2 5.8 12.9 12.7 6.1 6.3 13.5 14.1 22.5 23.5 8.1 8.6 17.5 18.2 29.7 30.5l0.3 0.3 0.2 0.3 33.5 35.1 90 93 29.1 30.1-0.1 0.1 0.3 0.3c2.6 2.3 5.4 5 8.3 8 1.8 1.8 3.9 4 6.3 6.3 2.9 2.9 6.1 6.1 9.7 9.8l0.6 0.6 0.6 0.6c6.6 7.4 11.6 15.7 14.9 24.5 3.2 8.5 4.8 17.5 4.8 26.5 0.1 6.7-0.6 13.3-1.9 19.7zM765.2 230.70000000000005l-33.5-35.1c-11.1-11.3-21.2-21.6-30.2-31-8.9-9.4-16.3-17.1-22.2-23.2-5.9-6.1-9.4-9.5-10.5-10.4-2.8-2.6-6-5.4-9.6-8.2-3.6-2.9-7.4-5.2-11.3-7-3.9-2-9.6-4.4-17.2-7.4-7.6-2.9-15.4-5.7-23.7-8.4-8.2-2.7-16.1-5.1-23.5-7.1-7.4-2-12.9-3.3-16.6-3.9-1.6-0.2-3.2-0.3-4.5-0.3-5 0-8.6 1.2-10.5 3.7-2.5 3.2-3.2 8.5-2.1 16 0.6 4.1 1.9 9.9 4 17.6 2.1 7.7 4.3 15.6 6.7 23.8 2.4 8.3 4.7 15.9 6.9 22.8s4.1 11.7 5.5 14.3c1.7 4 3.6 7.7 5.7 11s5.1 7 9 11c1.7 1.8 5.6 5.9 11.8 12.4 6.1 6.5 13.8 14.5 23.1 24.1l30.6 31.6 34 35.1 90.1 93.2 78.4-81.5-90.4-93.1z m150.5 158.6c-1.4-3.8-3.6-7.4-6.7-10.8-3.3-3.5-6.4-6.5-9-9.1l-6.9-6.9c-2.2-2.3-4.3-4.3-6.3-6.1l-78.4 81c3.4 3.2 7.4 7 11.9 11.5 4.6 4.5 8.5 8 11.5 10.6 3.9 3.1 8 5.4 12.1 6.7 3.8 1.2 7.5 1.8 11.2 1.8h1.2c4-0.2 8-0.8 11.7-1.9 3.8-1.2 7.1-2.5 9.8-3.9 5.9-3.2 12.4-8.7 19.5-16.6 7.1-7.9 12.6-16.3 16.6-24.9 1.1-2.6 2-5.6 2.7-9.1 0.7-3.5 1.1-7.1 1.1-10.8 0.1-3.9-0.6-7.7-2-11.5z"  horiz-adv-x="1024" />
      
      <glyph glyph-name="blog" unicode="&#58885;" d="M260.812609 301.238065c20.509103 17.712407 30.763654 40.86164 30.763654 69.450768 0 22.992667-6.758937 41.677215-20.275789 56.04955-13.516852 14.369266-31.54239 22.874987-54.06843 25.51921l0 0.932232c18.021445 5.903453 32.161491 15.847943 42.416042 29.830399 10.254551 13.983479 15.382339 30.450523 15.382339 49.408293 0 22.682605-8.469905 41.09393-25.403576 55.233975-16.936741 14.135952-39.85266 21.208021-68.750827 21.208021L85.788363 608.870514l0-334.200548 97.416703 0C214.434326 274.66996600000004 240.303506 283.525658 260.812609 301.238065zM124.941082 573.446723l44.980447 0c42.72508 0 64.089667-16.237823 64.089667-48.708352 0-18.801205-6.139837-33.366945-18.411325-43.698245-12.275581-10.334369-29.131481-15.498996-50.572816-15.498996l-40.085974 0L124.941082 573.446723zM124.941082 430.350654l44.980447 0c53.755298 0 80.636528-19.733437 80.636528-59.196217 0-18.956747-6.332219-33.873482-18.99461-44.747133-12.664438-10.876722-30.493501-16.313547-53.486168-16.313547l-53.136198 0L124.941082 430.350654zM354.268094 609.561245l38.220487 0 0-334.89128-38.220487 0 0 334.89128ZM656.189472 308.56903c21.518083 22.915919 32.278147 53.405327 32.278147 91.474364 0 38.839587-9.984399 69.217455-29.947056 91.124394-19.966751 21.906939-47.740304 32.860409-83.317591 32.860409-37.288255 0-66.886363-11.266601-88.793302-33.792641-21.906939-22.530133-32.860409-53.835116-32.860409-93.92109 0-36.82265 10.523681-66.384943 31.578206-88.677669 21.051455-22.296819 49.211818-33.443693 84.483136-33.443693C605.810061 274.19310499999995 634.669342 285.650041 656.189472 308.56903zM492.70198 397.712303c0 29.364795 7.143701 52.397371 21.440311 69.100798 14.293541 16.700357 33.712823 25.053606 58.263985 25.053606 24.704658 0 43.698245-8.080026 56.982806-24.238031 13.283538-16.161075 19.926842-39.152718 19.926842-68.984141 0-29.521361-6.642281-52.283784-19.926842-68.285223-13.283538-16.004509-32.278147-24.004717-56.982806-24.004717-24.238031 0-43.580564 8.157797-58.030671 24.471344C499.926522 347.138464 492.70198 369.43323599999997 492.70198 397.712303zM953.218422 298.89674L953.218422 518.434805l-38.22151 0 0-33.093722-0.931209 0c-15.538905 25.789363-39.386032 38.687114-71.548546 38.687114-33.873482 0-60.558238-11.965519-80.053244-35.890418-19.501146-23.927969-29.249161-56.166207-29.249161-96.717785 0-35.737946 9.05012-64.206324 27.151383-85.415368 18.098193-21.208021 41.98523-31.81152 71.66418-31.81152 36.509519 0 63.856353 15.22475 82.035388 45.679365l0.931209 0 0-26.102495c0-24.480554-4.532223-44.140313-13.553691-59.026348l-19.323091-20.441565c-0.276293-0.187265-0.546446-0.379647-0.825808-0.562818-6.04467-3.734044-48.823985-27.699875-110.058628 0.473791-66.173119 30.446429-160.317289 32.940227-183.51257-46.759977l27.288506-21.030989c0 0 0 37.520545 42.296315 52.529377 31.41857 11.148921 65.62258-2.943029 92.685959-14.557554l0-0.160659c7.767917-3.939729 16.008602-7.169283 24.701588-9.721409 0.143263-0.046049 0.288572-0.094144 0.430812-0.13917 1.215688-0.381693 2.52552-0.73678 3.90903-1.066285 14.81645-3.891633 30.921243-5.854335 48.331775-5.854335C911.269008 167.45408199999997 953.218422 211.26796000000002 953.218422 298.89674zM894.83778 329.193767c-13.440104-15.228843-30.879288-22.839171-52.320623-22.839171-21.131273 0-38.10383 7.960299-50.922786 23.889083-12.81691 15.924691-19.2269 37.171598-19.2269 63.74072 0 30.916127 6.678096 54.960753 20.042475 72.129784 13.361309 17.165961 31.848359 25.752524 55.467289 25.752524 19.111267 0 35.074843-6.757914 47.892777-20.275789 12.817933-13.516852 19.2269-29.754674 19.2269-48.708352l0-35.1915C914.996912 363.919662 908.275837 344.41851599999995 894.83778 329.193767z"  horiz-adv-x="1024" />
      
      <glyph glyph-name="nanxing" unicode="&#58888;" d="M232.64 307.35a14.31 14.31 0 0 0-13.16 8.65l-13.07 30.54a14.29 14.29 0 0 0 26.32 11.14l13.07-30.54a14.26 14.26 0 0 0-13.15-19.8zM792.91 307.35a14.26 14.26 0 0 0-13.15 19.8l13.07 30.54a14.29 14.29 0 0 0 26.32-11.14L806.08 316a14.31 14.31 0 0 0-13.17-8.65zM432.59 303.94a14.26 14.26 0 0 0-14.3 14.23 20.2 20.2 0 0 1-40.41 0 14.3 14.3 0 0 0-28.61 0 48.81 48.81 0 0 0 97.62 0 14.26 14.26 0 0 0-14.3-14.23zM660.3 303.94a14.26 14.26 0 0 0-14.3 14.23 20.2 20.2 0 0 1-40.41 0 14.3 14.3 0 0 0-28.61 0 48.81 48.81 0 0 0 97.62 0 14.26 14.26 0 0 0-14.3-14.23zM520.54 166.65c-19.91 0-38 8.65-48.32 23.14a14.18 14.18 0 0 0 3.38 19.83 14.35 14.35 0 0 0 19.94-3.37c4.91-6.88 14.49-11.16 25-11.16 11.59 0 22.15 5.34 26.3 13.29a14.34 14.34 0 0 0 19.28 6.08 14.19 14.19 0 0 0 6.11-19.18c-9.07-17.39-29.36-28.63-51.69-28.63zM511.94 19a257 257 0 0 0-182.45 75.16 254.25 254.25 0 0 0-75.57 181.46V508.43h28.61v-232.8a226.06 226.06 0 0 1 67.19-161.34 230.3 230.3 0 0 1 324.44 0 226.06 226.06 0 0 1 67.19 161.34V562.49H770v-286.86a254.25 254.25 0 0 0-75.57-181.46A257 257 0 0 0 511.94 19zM271.38 211.59c-7.28 0-16 3-26.35 9-10.2 5.91-21.4 14.37-32.38 24.45-14.73 13.53-62.29 61.36-56.1 108.92 2.86 22 10.2 40.22 21.8 54.27 10.71 13 24.41 21.45 39.62 24.53 24.4 4.94 48-5.13 60-25.64l-24.68-14.38c-5.89 10-17.26 14.65-29.66 12.14-24-4.85-35.73-31.37-38.75-54.57-2.22-17.05 8-40.52 28-64.39a209 209 0 0 1 35.56-33.54c13.48-9.86 21.08-12.25 22.87-12.34a4.36 4.36 0 0 1-1-0.11l5.91-27.84a23.85 23.85 0 0 0-4.84-0.5zM752.62 211.59a23.85 23.85 0 0 0-4.92 0.49l5.91 27.84a4.35 4.35 0 0 1-1 0.11c1.79 0.09 9.38 2.49 22.87 12.34a209 209 0 0 1 35.56 33.54c20 23.87 30.23 47.34 28 64.39-3 23.21-14.79 49.73-38.75 54.57-12.4 2.51-23.77-2.15-29.66-12.14L746 407.11c12.08 20.51 35.66 30.58 60 25.64 15.21-3.07 28.91-11.56 39.62-24.53 11.6-14 18.94-32.31 21.8-54.27 6.2-47.56-41.37-95.4-56.1-108.92-11-10.08-22.17-18.54-32.38-24.45-10.35-6.03-19.04-8.99-26.32-8.99zM742.47 419.77c-20.67 0-40.87 7-58.13 20.23a114.3 114.3 0 0 0-36.72 50.22 665.84 665.84 0 0 0-83.41-31.1c-48.66-14.28-91.55-19.5-127.45-15.51-36.54 4.05-64.53 16.92-94.16 30.54-38.47 17.68-82.08 37.72-157.83 45.32a14.31 14.31 0 0 0-10.87 6.9 14.16 14.16 0 0 0-0.88 12.79c0.6 1.4 15 34.86 45.92 74.89C247.59 651.1 296.54 701 367 728.33c81.39 31.58 172.93 26.94 272.35-13.73v17.5a14.24 14.24 0 0 0 10.51 13.72c26.59 7.28 54.81 1.63 77.42-15.51 26.82-20.32 42.83-54.16 42.83-90.5v-204.67a14.25 14.25 0 0 0-11.87-14 93.18 93.18 0 0 0-15.77-1.37z m-85.94 104.48a14.3 14.3 0 0 0 13.95-11.08c8.74-38.36 38.13-64.42 71-64.94V639.81c0 27.52-11.8 52.89-31.56 67.87-12.67 9.6-27.26 13.93-42 12.61v-27.35a14.21 14.21 0 0 0-6.56-12 14.37 14.37 0 0 0-13.67-1c-100 45.3-190.91 52.65-270.33 21.83C281.73 664.72 227.72 581.48 208 545.36 276.17 536 317.62 517 354.59 500c28.66-13.17 53.41-24.54 85.33-28.09 25.23-2.8 96.24-3.44 210.43 51a14.36 14.36 0 0 0 6.18 1.34z"  horiz-adv-x="1024" />
      
      <glyph glyph-name="nvxing" unicode="&#58891;" d="M281.07 272.14a14.93 14.93 0 0 0-8.7 2.79l-25.83 18.44A15 15 0 0 0 264 317.79l25.83-18.44a15 15 0 0 0-8.73-27.21zM747.31 272.14a15 15 0 0 0-8.73 27.21l25.83 18.44a15 15 0 0 0 17.43-24.42L756 274.93a14.94 14.94 0 0 0-8.69-2.79zM278.55 416.77c-8 0-14.55 6.07-14.66 13.64s6.37 13.9 14.47 14c142.54 1.77 335.07 113.64 337 114.76a15.19 15.19 0 0 0 20.19-4.44 13.37 13.37 0 0 0-4.71-19c-2-1.19-50.65-29.56-118.34-58.58-91.57-39.26-170.22-59.56-233.75-60.35zM748.6 427.31c-62.07 0-106.28 23.78-132.61 43.95-29.09 22.28-43.12 44.93-43.7 45.88a13.4 13.4 0 0 0 5.37 18.86c7 3.81 16 1.55 20-5 0.23-0.36 12.57-19.94 37.71-39 33.33-25.21 72.45-37.66 116.25-37.05h0.23c8 0 14.53-6.05 14.65-13.61s-6.34-13.91-14.44-14zM511.88 85.28c-47.32 0-89.06 11.74-124.05 34.9-30.77 20.36-56.42 49.6-76.25 86.91-41.49 78.07-47.69 172.47-47.69 221.79a14.66 14.66 0 1 0 29.32 0c0-73.66 15.77-314 218.67-314 78.66 0 138.57 37.64 178.09 111.87 42.62 80.07 47.22 175.95 47.22 213.45a14.66 14.66 0 1 0 29.32 0c0-39.74-4.94-141.47-50.71-227.45-20.67-38.83-47-69.34-78.32-90.68-35.81-24.42-78.06-36.79-125.6-36.79zM426.49 325.22a14.39 14.39 0 0 0-14.38 14.41 20.31 20.31 0 1 1-40.62 0 14.38 14.38 0 1 0-28.76 0 49.07 49.07 0 1 0 98.14 0 14.39 14.39 0 0 0-14.38-14.41zM655.42 325.22A14.39 14.39 0 0 0 641 339.63a20.31 20.31 0 1 1-40.62 0 14.38 14.38 0 1 0-28.76 0 49.07 49.07 0 1 0 98.14 0 14.39 14.39 0 0 0-14.34-14.41zM514.91 186.16c-20 0-38.18 8.76-48.58 23.44a14.39 14.39 0 1 0 23.45 16.68c4.94-7 14.57-11.3 25.13-11.3 11.65 0 22.27 5.41 26.44 13.46a14.39 14.39 0 1 0 25.53-13.27c-9.12-17.62-29.52-29.01-51.97-29.01zM695.79 19a14.41 14.41 0 0 0-0.06 28.82A150.4 150.4 0 0 1 844.93 208c-10.8 170.27-47.5 276-76.39 334.78-27 54.83-60.67 97.52-100.19 126.89C623.51 703 569.92 720 509.07 720.18h-0.89c-58.35 0-109.94-16.71-153.36-49.69-38.54-29.27-71.6-72-98.27-126.91-28.58-58.87-65.2-164.93-77.4-335.92A148.79 148.79 0 0 1 327.31 48a14.41 14.41 0 0 0 0-28.82 177.59 177.59 0 0 0-176.84 190.54c4.37 61.29 12.19 119.13 23.23 171.91 14 66.67 33.12 125.4 57 174.56 28.67 59.05 64.59 105.24 106.76 137.27C386 730.32 443.41 749 508.17 749h1c67.12-0.2 126.45-19.09 176.33-56.17 43.22-32.13 79.84-78.32 108.85-137.3 24.15-49.12 43.36-107.74 57.08-174.25 10.87-52.66 18.34-110.34 22.21-171.44A178.9 178.9 0 0 0 695.85 19zM319.47 203.56a14.94 14.94 0 0 0-6.37 1.44 407.13 407.13 0 0 0-47.49 27.14c-34.28 22.87-54.78 45.27-60.92 66.6a46.9 46.9 0 0 0 5.63 39.36c21.35 33.25 64 20.62 83.6 9.29a15 15 0 0 0-15-26 74.65 74.65 0 0 1-20.5 7.44c-4.92 0.91-16.46 3-22.87-6.94-3-4.7-3.65-9.27-2-14.84 7.62-26.49 60.69-60 92.35-74.9a15 15 0 0 0-6.39-28.58zM708.9 203.56a15 15 0 0 0-6.39 28.58c31.65 14.9 84.72 48.41 92.34 74.9 1.6 5.57 1 10.15-2 14.84-1.78 2.78-6.53 10.16-23.44 6.84a74.53 74.53 0 0 1-19.9-7.31 15 15 0 0 0-15 26c19.58 11.33 62.25 24 83.6-9.29a46.91 46.91 0 0 0 5.63-39.36c-6.2-21.36-26.74-43.76-60.98-66.64A407.13 407.13 0 0 0 715.27 205a15 15 0 0 0-6.37-1.44z"  horiz-adv-x="1024" />
      
      <glyph glyph-name="waibu" unicode="&#58892;" d="M812.7 678.3C734.9 756.2 629.3 799.9 519.3 799.9s-215.6-43.7-293.4-121.6c-162-162-162-424.9 0-587 77.8-77.8 183.4-121.6 293.4-121.6s215.6 43.7 293.4 121.6c162.1 162.2 162.1 425 0 587zM774 130.1a359.88 359.88 0 0 0-254.7-105.6c-95.5 0-187.1 37.9-254.8 105.6-140.5 140.5-140.5 369 0 509.5 67.5 67.5 159.2 105.6 254.8 105.6 95.5 0 187.2-37.9 254.8-105.6 140.4-140.5 140.4-369.1-0.1-509.5zM311.1 420.9v32.7c42.4 33.9 67.3 81.2 74.6 141.9h60c-2.4-14.5-5.5-27.9-9.1-40h100v-36.4c-8.5-160.1-82.5-274-221.9-341.9v40c60.6 43.7 102.4 91.5 125.5 143.7-30.3 13.3-59.4 23-87.3 29.1v40c41.2-4.9 75.8-14 103.7-27.3 9.7 30.3 16.4 69.1 20 116.4h-56.4c-18.1-41.2-54.5-74-109.1-98.2z m256.5-243.7V595.5H624v-418.3h-56.4z m160 167.3c-36.4 35.2-67.9 59.4-94.6 72.8v50.9c43.7-18.2 75.2-37 94.6-56.4v-67.3z"  horiz-adv-x="1024" />
      
      <glyph glyph-name="neibu" unicode="&#58898;" d="M403.9 271v35.7c57.5 31.3 83.8 94.4 78.8 189.5V500h-97.5v-322.7h-60.1V541.1h157.6V603h60.1v-61.9h157.6v-288.9c1.2-48.8-23.8-72.5-75.1-71.3H584v37.5h26.3c21.3 0 31.3 10.6 30 31.9V499.8h-97.6v-3.8c-3.8-93.8 23.1-157 80.7-189.5v-35.7c-52.5 20-89.5 50.7-110.7 92-22.4-43.7-58.7-74.3-108.8-91.8zM805.4 678.3C727.6 756.2 622 799.9 512 799.9s-215.6-43.7-293.4-121.6c-162-162-162-424.9 0-587C296.4 13.5 402-30.3 512-30.3s215.6 43.7 293.4 121.6c162.1 162.2 162.1 425 0 587z m-38.7-548.2A359.88 359.88 0 0 0 512 24.5c-95.5 0-187.1 37.9-254.8 105.6-140.5 140.5-140.5 369 0 509.5 67.5 67.5 159.2 105.6 254.8 105.6 95.5 0 187.2-37.9 254.8-105.6 140.4-140.5 140.4-369.1-0.1-509.5z"  horiz-adv-x="1024" />
      
      <glyph glyph-name="tuya--copy" unicode="&#60452;" d="M956.79 395.92c-5.82 76.15-3.17 150.8-4.75 226.93-0.56 27.27 3.75 77-20.7 97.92-22 18.79-55.6 10.64-81.66 8.16-83.93-8-166-11.23-250.27-13.55-12.34-0.34-24.61-1-36.91-1.59a14.43 14.43 0 0 1-3.14 0.79c-87.78 5.65-167.35-8.16-254-18.13-73.42-8.45-139.23-3.38-211.56-0.35-8.44 0.35-16.29-4.84-20.59-11.81-19.4-31.43-3.09-66.58 1.85-101.84 10.69-76.18 8.69-151.37 13.69-227.92 5.34-81.69 14.75-166.7 29.69-247.19 5.36-28.88 10.53-51.37 40.18-64.51 43.64-19.35 110.94 3.72 155.54 6.16 73.24 4 146.38 3.47 219.71 8.15 83.25 5.32 166.43 1.71 249.74 0.28 38.78-0.66 90.13-7.88 124.11 17 29.78 21.8 36.92 58.17 41.84 92.7a1041.2 1041.2 0 0 1 7.23 228.8z m-837 233.15l-0.87 6.47q-12.6 24.41 2.44 8.83c-0.57-0.35 59.18-3.77 55.18-4.4 12.92 0.25 25.79 1.12 38.67 2-1.88-33.49-27.85-57.35-45.4-84.19-13.48-20.63-24.66-42.8-35.09-65.23-6.63 44.36-21.93 101.09-14.89 136.52zM801.4 119.4c-71.39 0.16-142.8 2.67-214.17-0.23-32-1.3-63.79-4.07-95.63-6.58 12.81 21.35 28.5 40.26 45.76 58.65 3 3.2-1.8 8-4.82 4.82-18.93-20-36.57-40.7-50.77-64.18-25-1.9-50.07-3.59-75.23-4-2.9 0-6.13-0.32-9.17-0.47 9.82 19.88 27.8 38.27 37.79 55.55 1.78 3.08-2.9 5.8-4.76 2.78C418.84 147 399.23 128.25 389 107c-51.95-3.71-119.73-18-165-9.18-35.76 7-49.91 32.38-56.81 63.34a4.68 4.68 0 0 1 1.47 3.21c0.82 35 20.29 67.64 34.47 98.92 12.8 28.24 25.7 56.43 37.94 84.91 1.93 4.49-4.67 8.42-6.64 3.88-15.84-36.55-33.17-72.38-50.07-108.44-8.25-17.59-16.82-34.77-21.84-53.11-1.93 16.92-3.11 34.27-5.39 50.37-1.79 12.68-3.1 25.32-4.59 38 10.06 25.69 17.53 52.78 29.2 77.5 17.8 37.7 37.29 73.74 50.15 113.57 1.41 4.38-5.4 6.2-6.86 1.89-14.89-44-38.27-83-57.73-124.9-6.74-14.49-12.12-29.52-17.61-44.49q-3.8 36.27-6.48 72.55c14.73 25.6 23.74 54.1 36.63 80.86 18.86 39.18 40.88 76.83 61.8 114.93 2.79 5.08-5 9.62-7.77 4.54-21-38-43-75.64-62.7-114.4-10.73-21.16-19.08-43.33-29.49-64.45q-2.31 35.07-4 70.38c-0.1 2.1-0.45 4.54-0.64 6.76 14.59 33.44 30.33 66.55 51.51 96.34 16.24 22.85 33.1 44 33.92 72.39 56.89 4.3 113.44 13.65 170 23 34 1.61 68.06 2.8 102 3 68.35 0.3 136.7-0.69 205-2 32.19-0.62 64.19-2.11 96.36-0.09 20.88 1.32 60.27 16.86 78 8.1 42-20.7 18.25-138.77 18.44-177.88 0.3-61.43 10.09-122.55 8.93-183.95-1.36-73.3-5.05-193.36-99.8-193.15zM176.59 640c-0.57 0-1.14-0.08-1.72-0.09a15.12 15.12 0 0 1 1.72 0.09zM697.66 441.41c-32.19 35.85-78.54 52.94-122.12 70.9-44.38 18.29-97.18 71.78-148.9 67.44-24.39-2-30.1-12-32.12-34.54-1.21-13.55 2.08-27.45 5.05-40.92-5.31-38.19-9-72.25-3.84-114 6.64-53.91 11.41-106.15 14-160.27 1.07-22.29 24.56-37.46 44.83-25.72 88.3 51.15 191.36 113.62 247.68 201.47 7.34 11.37 3.95 26.15-4.58 35.64zM464.54 280.56c-3.53 31.19-4.92 61.48-11.55 94-2.12 10.39-1.65 20.68-1.65 30.94v5.87c0 44.44-1.82 87.25-12.06 130.72 6.83 0.3 15.77-3.38 32-12.81 28-16.19 50-38.58 78.82-53.94s63.68-31 88.32-54.72c-49.29-55.03-111.19-100.2-173.88-140.06zM243 267.63c-8.44-27.68-17.12-55.35-28.41-82-8.18-19.31-17.84-37.1-19.13-58.4-0.39-6.53 9.77-6.51 10.16 0 1.46 24.23 14.61 45.77 22.9 68.17 8.52 23 15.6 46.5 22.45 70.06 1.5 5.1-6.42 7.26-7.97 2.17zM292.59 211c-9.09-36.35-39.12-63.62-40.23-102.4-0.14-5 7.93-5.05 7.84 0-0.69 37.6 28.14 65.81 34.08 101.94 0.17 1.11-1.41 1.6-1.69 0.46zM365.13 176.27c-8.87-10.73-18.75-20.57-27.52-31.4-8.27-10.2-18.33-21.69-20.15-35.17-0.67-5 6.86-7.24 7.7-2.12 4.09 25.06 29.89 44.8 45.21 63.46 2.99 3.64-2.2 8.91-5.24 5.23z"  horiz-adv-x="1024" />
      
      <glyph glyph-name="tuya-" unicode="&#59226;" d="M956.79 395.92c-5.82 76.15-3.17 150.8-4.75 226.93-0.56 27.27 3.75 77-20.7 97.92-22 18.79-55.6 10.64-81.66 8.16-83.93-8-166-11.23-250.27-13.55-12.34-0.34-24.61-1-36.91-1.59a14.43 14.43 0 0 1-3.14 0.79c-87.78 5.65-167.35-8.16-254-18.13-73.42-8.45-139.23-3.38-211.56-0.35-8.44 0.35-16.29-4.84-20.59-11.81-19.4-31.43-3.09-66.58 1.85-101.84 10.69-76.18 8.69-151.37 13.69-227.92 5.34-81.69 14.75-166.7 29.69-247.19 5.36-28.88 10.53-51.37 40.18-64.51 43.64-19.35 110.94 3.72 155.54 6.16 73.24 4 146.38 3.47 219.71 8.15 83.25 5.32 166.43 1.71 249.74 0.28 38.78-0.66 90.13-7.88 124.11 17 29.78 21.8 36.92 58.17 41.84 92.7a1041.2 1041.2 0 0 1 7.23 228.8z m-837 233.15l-0.87 6.47q-12.6 24.41 2.44 8.83c-0.57-0.35 59.18-3.77 55.18-4.4 12.92 0.25 25.79 1.12 38.67 2-1.88-33.49-27.85-57.35-45.4-84.19-13.48-20.63-24.66-42.8-35.09-65.23-6.63 44.36-21.93 101.09-14.89 136.52zM801.4 119.4c-71.39 0.16-142.8 2.67-214.17-0.23-32-1.3-63.79-4.07-95.63-6.58 12.81 21.35 28.5 40.26 45.76 58.65 3 3.2-1.8 8-4.82 4.82-18.93-20-36.57-40.7-50.77-64.18-25-1.9-50.07-3.59-75.23-4-2.9 0-6.13-0.32-9.17-0.47 9.82 19.88 27.8 38.27 37.79 55.55 1.78 3.08-2.9 5.8-4.76 2.78C418.84 147 399.23 128.25 389 107c-51.95-3.71-119.73-18-165-9.18-35.76 7-49.91 32.38-56.81 63.34a4.68 4.68 0 0 1 1.47 3.21c0.82 35 20.29 67.64 34.47 98.92 12.8 28.24 25.7 56.43 37.94 84.91 1.93 4.49-4.67 8.42-6.64 3.88-15.84-36.55-33.17-72.38-50.07-108.44-8.25-17.59-16.82-34.77-21.84-53.11-1.93 16.92-3.11 34.27-5.39 50.37-1.79 12.68-3.1 25.32-4.59 38 10.06 25.69 17.53 52.78 29.2 77.5 17.8 37.7 37.29 73.74 50.15 113.57 1.41 4.38-5.4 6.2-6.86 1.89-14.89-44-38.27-83-57.73-124.9-6.74-14.49-12.12-29.52-17.61-44.49q-3.8 36.27-6.48 72.55c14.73 25.6 23.74 54.1 36.63 80.86 18.86 39.18 40.88 76.83 61.8 114.93 2.79 5.08-5 9.62-7.77 4.54-21-38-43-75.64-62.7-114.4-10.73-21.16-19.08-43.33-29.49-64.45q-2.31 35.07-4 70.38c-0.1 2.1-0.45 4.54-0.64 6.76 14.59 33.44 30.33 66.55 51.51 96.34 16.24 22.85 33.1 44 33.92 72.39 56.89 4.3 113.44 13.65 170 23 34 1.61 68.06 2.8 102 3 68.35 0.3 136.7-0.69 205-2 32.19-0.62 64.19-2.11 96.36-0.09 20.88 1.32 60.27 16.86 78 8.1 42-20.7 18.25-138.77 18.44-177.88 0.3-61.43 10.09-122.55 8.93-183.95-1.36-73.3-5.05-193.36-99.8-193.15zM176.59 640c-0.57 0-1.14-0.08-1.72-0.09a15.12 15.12 0 0 1 1.72 0.09zM697.66 441.41c-32.19 35.85-78.54 52.94-122.12 70.9-44.38 18.29-97.18 71.78-148.9 67.44-24.39-2-30.1-12-32.12-34.54-1.21-13.55 2.08-27.45 5.05-40.92-5.31-38.19-9-72.25-3.84-114 6.64-53.91 11.41-106.15 14-160.27 1.07-22.29 24.56-37.46 44.83-25.72 88.3 51.15 191.36 113.62 247.68 201.47 7.34 11.37 3.95 26.15-4.58 35.64zM464.54 280.56c-3.53 31.19-4.92 61.48-11.55 94-2.12 10.39-1.65 20.68-1.65 30.94v5.87c0 44.44-1.82 87.25-12.06 130.72 6.83 0.3 15.77-3.38 32-12.81 28-16.19 50-38.58 78.82-53.94s63.68-31 88.32-54.72c-49.29-55.03-111.19-100.2-173.88-140.06zM243 267.63c-8.44-27.68-17.12-55.35-28.41-82-8.18-19.31-17.84-37.1-19.13-58.4-0.39-6.53 9.77-6.51 10.16 0 1.46 24.23 14.61 45.77 22.9 68.17 8.52 23 15.6 46.5 22.45 70.06 1.5 5.1-6.42 7.26-7.97 2.17zM292.59 211c-9.09-36.35-39.12-63.62-40.23-102.4-0.14-5 7.93-5.05 7.84 0-0.69 37.6 28.14 65.81 34.08 101.94 0.17 1.11-1.41 1.6-1.69 0.46zM365.13 176.27c-8.87-10.73-18.75-20.57-27.52-31.4-8.27-10.2-18.33-21.69-20.15-35.17-0.67-5 6.86-7.24 7.7-2.12 4.09 25.06 29.89 44.8 45.21 63.46 2.99 3.64-2.2 8.91-5.24 5.23z"  horiz-adv-x="1024" />
      
      <glyph glyph-name="UP" unicode="&#58915;" d="M896 160c0-54.4-41.6-96-96-96h-576c-54.4 0-96 41.6-96 96v448C128 662.4 169.6 704 224 704h576c54.4 0 96-41.6 96-96v-448zM800 768h-576C134.4 768 64 697.6 64 608v-448C64 70.4 134.4 0 224 0h576c89.6 0 160 70.4 160 160v448C960 697.6 889.6 768 800 768zM419.2 352c0-51.2-3.2-108.8-83.2-108.8s-83.2 57.6-83.2 108.8V569.6H192v-243.2c0-96 51.2-140.8 140.8-140.8 89.6 0 147.2 48 147.2 144V569.6h-60.8v-217.6zM707.2 390.4H614.4V512h92.8c32 0 60.8-12.8 60.8-60.8 0-44.8-32-60.8-60.8-60.8m3.2 179.2H553.6V192h60.8V339.2h96c102.4 0 121.6 67.2 121.6 115.2 0 44.8-19.2 115.2-121.6 115.2"  horiz-adv-x="1024" />
      
      <glyph glyph-name="UP-copy" unicode="&#60451;" d="M896 160c0-54.4-41.6-96-96-96h-576c-54.4 0-96 41.6-96 96v448C128 662.4 169.6 704 224 704h576c54.4 0 96-41.6 96-96v-448zM800 768h-576C134.4 768 64 697.6 64 608v-448C64 70.4 134.4 0 224 0h576c89.6 0 160 70.4 160 160v448C960 697.6 889.6 768 800 768zM419.2 352c0-51.2-3.2-108.8-83.2-108.8s-83.2 57.6-83.2 108.8V569.6H192v-243.2c0-96 51.2-140.8 140.8-140.8 89.6 0 147.2 48 147.2 144V569.6h-60.8v-217.6zM707.2 390.4H614.4V512h92.8c32 0 60.8-12.8 60.8-60.8 0-44.8-32-60.8-60.8-60.8m3.2 179.2H553.6V192h60.8V339.2h96c102.4 0 121.6 67.2 121.6 115.2 0 44.8-19.2 115.2-121.6 115.2"  horiz-adv-x="1024" />
      
      <glyph glyph-name="mianfei-xianxing" unicode="&#59569;" d="M137.6 140C91.2 210.4 64 294.4 64 384.8c0 247.2 200.8 448 448 448 90.4 0 174.4-27.2 245.6-73.6l-46.4-46.4c-58.4 35.2-126.4 56-198.4 56-212 0-384-172-384-384 0-72.8 20-140.8 56-198.4l-47.2-46.4zM320 448v-64h62.4l64 64H320z m56.8 192l-45.6-45.6L461.6 464l45.6 45.6L376.8 640z m490.4 138.4l45.6-45.6-58.4-58.4C920 596 960 495.2 960 384.8c0-247.2-200.8-448-448-448-110.4 0-211.2 40-289.6 106.4l-63.2-63.2-45.6 45.6M896 384.8c0 92.8-32.8 177.6-87.2 244L628.8 448H704v-64H564.8l-20-20V320H704v-64H544.8v-192h-64V256h-44l-168.8-167.2c66.4-54.4 151.2-87.2 244-87.2 212-0.8 384 172 384 383.2z"  horiz-adv-x="1024" />
      
      <glyph glyph-name="shoufei1" unicode="&#58884;" d="M678.247 569.887c2.264 5.219 3.395 10.979 3.395 17.302 0 7.911-2.843 14.628-8.523 20.126-5.681 5.486-13.039 8.235-22.04 8.235-6.338 0-11.783-1.251-16.386-3.777-4.598-2.518-8.424-5.724-11.482-9.599-3.069-3.866-6.238-8.553-9.476-14.045a1378.253 1378.253 0 0 1-9.196-15.82l-78.19-128.904-87.391 136.756c-7.591 12.422-14.23 21.427-19.908 27.01-5.681 5.596-13.117 8.379-22.321 8.379-9.018 0-16.356-2.842-22.037-8.509-5.678-5.67-8.521-13.205-8.521-22.571 0-5.21 0.982-9.982 2.968-14.325 1.982-4.318 6.23-11.536 12.713-21.609l80.908-126.747H428.4c-25.635 0-38.426-8.298-38.426-24.865 0-16.93 12.789-25.408 38.426-25.408h60.876v-56.715H428.4c-25.635 0-38.426-8.493-38.426-25.4 0-16.598 12.789-24.878 38.426-24.878h60.876v-57.218c0-36.579 12.337-54.855 37.071-54.855 24.349 0 36.51 18.276 36.51 54.855v57.218h61.151c25.439 0 38.161 8.28 38.161 24.878 0 16.907-12.722 25.4-38.161 25.4h-61.151v56.715h61.151c25.439 0 38.161 8.479 38.161 25.408 0 16.567-12.722 24.865-38.161 24.865h-34.354l77.912 128.37c4.879 7.909 8.443 14.501 10.681 19.728zM523.904-51.35299999999995c-240.053 0-435.352 195.296-435.352 435.351 0 240.057 195.298 435.354 435.352 435.354 240.055 0 435.352-195.298 435.352-435.354 0-240.055-195.297-435.351-435.352-435.351z m0 826.021c-215.412 0-390.667-175.255-390.667-390.67 0-215.411 175.256-390.662 390.667-390.662 215.421 0 390.671 175.251 390.671 390.662 0 215.415-175.25 390.67-390.671 390.67z"  horiz-adv-x="1024" />
      
      <glyph glyph-name="shoufei1-copy" unicode="&#60449;" d="M678.247 569.887c2.264 5.219 3.395 10.979 3.395 17.302 0 7.911-2.843 14.628-8.523 20.126-5.681 5.486-13.039 8.235-22.04 8.235-6.338 0-11.783-1.251-16.386-3.777-4.598-2.518-8.424-5.724-11.482-9.599-3.069-3.866-6.238-8.553-9.476-14.045a1378.253 1378.253 0 0 1-9.196-15.82l-78.19-128.904-87.391 136.756c-7.591 12.422-14.23 21.427-19.908 27.01-5.681 5.596-13.117 8.379-22.321 8.379-9.018 0-16.356-2.842-22.037-8.509-5.678-5.67-8.521-13.205-8.521-22.571 0-5.21 0.982-9.982 2.968-14.325 1.982-4.318 6.23-11.536 12.713-21.609l80.908-126.747H428.4c-25.635 0-38.426-8.298-38.426-24.865 0-16.93 12.789-25.408 38.426-25.408h60.876v-56.715H428.4c-25.635 0-38.426-8.493-38.426-25.4 0-16.598 12.789-24.878 38.426-24.878h60.876v-57.218c0-36.579 12.337-54.855 37.071-54.855 24.349 0 36.51 18.276 36.51 54.855v57.218h61.151c25.439 0 38.161 8.28 38.161 24.878 0 16.907-12.722 25.4-38.161 25.4h-61.151v56.715h61.151c25.439 0 38.161 8.479 38.161 25.408 0 16.567-12.722 24.865-38.161 24.865h-34.354l77.912 128.37c4.879 7.909 8.443 14.501 10.681 19.728zM523.904-51.353c-240.053 0-435.352 195.296-435.352 435.351 0 240.057 195.298 435.354 435.352 435.354 240.055 0 435.352-195.298 435.352-435.354 0-240.055-195.297-435.351-435.352-435.351z m0 826.021c-215.412 0-390.667-175.255-390.667-390.67 0-215.411 175.256-390.662 390.667-390.662 215.421 0 390.671 175.251 390.671 390.662 0 215.415-175.25 390.67-390.671 390.67z"  horiz-adv-x="1024" />
      
      <glyph glyph-name="mianfei-xianxing-copy" unicode="&#60450;" d="M137.6 140C91.2 210.4 64 294.4 64 384.8c0 247.2 200.8 448 448 448 90.4 0 174.4-27.2 245.6-73.6l-46.4-46.4c-58.4 35.2-126.4 56-198.4 56-212 0-384-172-384-384 0-72.8 20-140.8 56-198.4l-47.2-46.4zM320 448v-64h62.4l64 64H320z m56.8 192l-45.6-45.6L461.6 464l45.6 45.6L376.8 640z m490.4 138.4l45.6-45.6-58.4-58.4C920 596 960 495.2 960 384.8c0-247.2-200.8-448-448-448-110.4 0-211.2 40-289.6 106.4l-63.2-63.2-45.6 45.6M896 384.8c0 92.8-32.8 177.6-87.2 244L628.8 448H704v-64H564.8l-20-20V320H704v-64H544.8v-192h-64V256h-44l-168.8-167.2c66.4-54.4 151.2-87.2 244-87.2 212-0.8 384 172 384 383.2z"  horiz-adv-x="1024" />
      
      <glyph glyph-name="mianfei" unicode="&#58949;" d="M512 896C229.665391 896 0 666.334609 0 384 0 282.445913 29.785043 184.186435 86.105043 99.906783 96.345043 84.591304 117.092174 80.539826 132.429913 90.713043 147.767652 100.953043 151.863652 121.700174 141.623652 137.037913 92.672 210.298435 66.782609 295.69113 66.782609 384 66.782609 629.49287 266.50713 829.217391 512 829.217391 757.49287 829.217391 957.217391 629.49287 957.217391 384 957.217391 138.50713 757.49287-61.217391 512-61.217391 423.424-61.217391 337.808696-35.194435 264.392348 14.024348 249.143652 24.264348 228.374261 20.190609 218.067478 4.87513 207.805217-10.440348 211.901217-31.165217 227.216696-41.449739 311.652174-98.05913 410.134261-128 512-128 794.334609-128 1024 101.665391 1024 384 1024 666.334609 794.334609 896 512 896ZM323.283478 360.913252C309.103304 360.913252 301.979826 367.101774 301.979826 379.478817L301.979826 430.010991C301.979826 443.81273 309.103304 450.691339 323.283478 450.691339L462.057739 450.691339C458.629565 418.635687 450.192696 388.717078 436.813913 360.913252L323.283478 360.913252ZM524.454957 450.691339 700.360348 450.691339C708.10713 450.691339 714.073043 449.1776 718.32487 446.127861 721.975652 443.501078 723.801043 438.113948 723.801043 430.010991L723.801043 375.828035C723.801043 365.899687 716.032 360.913252 700.360348 360.913252L504.375652 360.913252C513.324522 388.917426 520.025043 418.858296 524.454957 450.691339ZM334.547478 238.255861C309.815652 221.226296 273.975652 205.688209 227.116522 191.686122L227.116522 139.039165C246.416696 141.064904 261.798957 143.402296 273.374609 146.051339 309.504 154.977948 344.275478 171.495513 377.755826 195.648557 413.506783 221.827339 446.363826 258.157078 476.371478 304.615513L522.028522 304.615513 522.028522 201.12473C522.028522 180.021426 528.328348 164.5056 540.883478 154.554991 552.281043 145.428035 566.77287 140.864557 584.403478 140.864557L789.849043 140.864557 789.849043 198.698296 603.881739 198.698296C595.801043 198.698296 589.901913 200.212035 586.25113 203.261774 582.800696 206.111165 581.197913 212.277426 581.376 221.827339L581.665391 304.615513 720.461913 304.615513C738.715826 304.615513 753.764174 310.202991 765.495652 321.355687 775.446261 330.883339 780.410435 345.397426 780.410435 364.875687L780.410435 446.728904C780.410435 466.630122 774.934261 481.633948 763.981913 491.784904 757.281391 498.06247 746.841043 502.848557 732.638609 506.076383L748.755478 543.207513C753.452522 553.981774 755.767652 562.997426 755.767652 570.298991 755.767652 584.924383 749.890783 597.90247 738.114783 609.255513 726.160696 621.231861 709.709913 627.220035 688.806957 627.220035L359.501913 627.220035 368.317217 657.338991 311.106783 657.338991C300.755478 628.533426 290.114783 607.430122 279.162435 594.051339 265.984 577.600557 250.534957 567.672209 232.882087 564.221774L232.882087 506.076383C256.233739 512.576557 275.622957 521.191513 291.027478 531.965774 304.62887 541.493426 317.94087 554.471513 330.896696 570.922296L665.366261 570.922296C677.36487 570.922296 684.844522 570.098643 687.894261 568.4736 692.591304 566.047165 694.884174 562.59673 694.884174 558.122296 694.884174 553.670122 692.902957 546.880557 688.806957 537.731339L675.405913 508.213426 326.021565 508.213426C295.41287 508.213426 274.42087 502.9376 263.023304 492.385948 251.069217 481.032904 245.058783 464.80473 245.058783 443.701426L245.058783 367.903165C245.058783 336.448557 258.05913 316.369252 284.015304 307.642991 290.114783 305.639513 302.425043 304.615513 320.857043 304.615513L403.333565 304.615513C379.581217 275.186643 356.674783 253.059339 334.547478 238.255861L334.547478 238.255861Z"  horiz-adv-x="1024" />
      
      <glyph glyph-name="shoufei" unicode="&#59062;" d="M508.20129 386.081032m-495.483871 0a495.483871 495.483871 0 1 1 990.967742 0 495.483871 495.483871 0 1 1-990.967742 0ZM408.328258 520.604903c0 16.037161-0.231226 30.290581-0.710193 42.793291-0.445935 12.486194-1.453419 21.338839-3.005936 26.574451 8.935226-1.552516 16.582194-2.526968 22.907871-3.005935 6.292645-0.462452 13.642323-0.545032 21.966452-0.231226 5.219097 0.29729 8.324129-0.462452 9.232516-2.328774 0.941419-1.83329-1.057032-4.162065-5.995355-6.936775-2.477419-1.552516-4.162065-4.855742-5.103484-9.942709-0.908387-5.103484-1.387355-13.179871-1.387355-24.295226v-287.644903c0-5.235613 0.066065-11.330065 0.231226-18.250323s0.478968-14.187355 0.941419-21.735226 1.007484-15.029677 1.618581-22.412387c0.611097-7.399226 1.222194-14.336 1.866323-20.826838h-46.707613c0.611097 5.565935 1.123097 12.040258 1.61858 19.439483l1.387355 22.660129c0.445935 7.696516 0.776258 15.178323 0.94142 22.412388 0.132129 7.234065 0.231226 13.477161 0.231225 18.72929V301.419355l-53.644387-14.798452c-5.252129-1.536-11.098839-3.848258-17.573161-6.936774s-11.875097-6.325677-16.185807-9.711484a298.512516 298.512516 0 0 1-8.324129 18.960516 205.493677 205.493677 0 0 1-10.652903 19.422968c7.101935 3.996903 11.974194 8.704 14.583742 14.104774 2.609548 5.384258 3.930839 11.016258 3.930839 16.862968v131.336258c0 12.948645-0.165161 23.964903-0.478968 33.06529a213.553548 213.553548 0 0 1-1.387355 20.579097c7.713032-1.552516 14.649806-2.460903 20.843355-2.77471 6.160516-0.313806 12.618323-0.165161 19.422968 0.445936 4.90529 0.627613 7.779097-0.066065 8.555355-2.081032 0.776258-1.998452-0.545032-3.914323-3.930839-5.780645-2.77471-1.552516-4.938323-3.468387-6.490839-5.780646a12.089806 12.089806 0 0 1-2.295742-6.705548V324.046452l53.644387 11.098838V520.604903z m173.419355-212.711226c11.379613 16.945548 20.413935 38.912 27.036903 65.899355 6.639484 26.970839 11.032774 57.426581 13.196387 91.334194h-83.257806a1158.755097 1158.755097 0 0 0-26.359742-56.650323 406.693161 406.693161 0 0 0-21.256258-37.689806 156.985806 156.985806 0 0 1-15.260903 9.249032 126.051097 126.051097 0 0 1-17.127226 7.399226 322.939871 322.939871 0 0 1 26.838709 44.395355 526.104774 526.104774 0 0 1 23.122581 52.504774c6.771613 18.035613 12.387097 35.906065 16.862968 53.644387 4.459355 17.721806 7.316645 33.990194 8.555355 48.788645 7.38271-2.477419 15.971097-5.020903 25.68258-7.646968a220.16 220.16 0 0 1 23.799742-5.301677c3.385806-0.627613 5.318194-1.635097 5.780645-3.022452 0.478968-1.387355-0.677161-3.154581-3.451871-5.301677a21.058065 21.058065 0 0 1-3.930838-4.162065 68.872258 68.872258 0 0 1-5.54942-9.728c-2.328774-4.608-5.318194-11.181419-9.034322-19.637677l-14.781936-33.990194h93.877678c16.929032 0 29.960258 0.29729 39.060645 0.924904a122.549677 122.549677 0 0 1 22.412387 3.237161v-39.770839a192.363355 192.363355 0 0 1-18.712774 2.081033c-6.936774 0.445935-16.417032 0.693677-28.457291 0.693677a595.340387 595.340387 0 0 0-8.324129-65.436903c-3.716129-19.588129-7.927742-36.996129-12.717419-52.257033s-10.02529-28.523355-15.739871-39.770838-11.330065-20.579097-16.862968-27.978323a212.397419 212.397419 0 0 1 48.094968-32.123871c17.870452-8.786581 37.607226-15.492129 59.193807-20.133161-15.706839-14.798452-25.286194-30.819097-28.672-48.078452-21.256258 9.876645-40.068129 20.645161-56.419097 32.371613a337.259355 337.259355 0 0 0-46.707613 40.695742 291.311484 291.311484 0 0 0-42.545549-40.695742c-15.095742-11.726452-33.131355-22.660129-54.090322-32.834064-2.444387 5.235613-6.325677 10.702452-11.544774 16.417032a84.892903 84.892903 0 0 1-18.514581 15.029677 201.282065 201.282065 0 0 1 54.585807 27.515871 326.160516 326.160516 0 0 1 47.649032 40.926968c-11.742968 15.723355-20.843355 33.758968-27.284645 54.106839-6.490839 20.331355-11.412645 45.468903-14.798452 75.363097l30.967742 9.711483c3.385806-44.411871 14.930581-81.11071 34.683871-110.08z"  horiz-adv-x="1024" />
      
      <glyph glyph-name="shijian" unicode="&#58914;" d="M512 839.111c-250.311 0-455.111-204.8-455.111-455.111S261.689-71.111 512-71.111 967.111 133.689 967.111 384 762.311 839.111 512 839.111m0-853.333c-221.867 0-398.222 176.355-398.222 398.222S290.133 782.222 512 782.222 910.222 605.867 910.222 384 733.867-14.222 512-14.222M512 384V668.444h-56.889v-341.333h284.445V384z"  horiz-adv-x="1024" />
      
      <glyph glyph-name="fenlei" unicode="&#58895;" d="M514 781.7c-220 0-398.8-178.9-398.8-398.8S294-16 514-16s398.8 178.9 398.8 398.8S734 781.7 514 781.7z m0-755c-196.5 0-356.1 159.6-356.1 356.1 0.5 196.5 160.1 356.1 356.1 356.1 196.5 0 356.1-159.6 356.1-356.1S710.5 26.7 514 26.7zM417.9 571.3h331v-42.7h-331zM417.9 410h331v-42.7h-331zM417.9 249.3h331v-42.7h-331zM303.1 571.3h58.7v-42.7h-58.7zM303.1 410h58.7v-42.7h-58.7zM303.1 249.3h58.7v-42.7h-58.7z"  horiz-adv-x="1024" />
      
      <glyph glyph-name="yanjing" unicode="&#59479;" d="M512 252.865306c-72.097959 0-131.134694 58.514286-131.134694 131.134694S439.902041 515.134694 512 515.134694s131.134694-58.514286 131.134694-131.134694-59.036735-131.134694-131.134694-131.134694z m0 220.47347c-49.110204 0-89.338776-40.228571-89.338776-89.338776s40.228571-89.338776 89.338776-89.338776 89.338776 40.228571 89.338776 89.338776-40.228571 89.338776-89.338776 89.338776zM512 115.461224c-173.97551 0-321.828571 131.134694-394.44898 208.979592-30.82449 33.436735-30.82449 85.159184 0 118.595919 72.620408 77.844898 220.473469 208.979592 394.44898 208.979592s321.828571-131.134694 394.44898-208.979592c30.82449-33.436735 30.82449-85.159184 0-118.595919-72.620408-77.844898-220.473469-208.979592-394.44898-208.979592z m0 495.281633c-158.302041 0-295.706122-122.77551-364.146939-195.918367-16.195918-17.240816-16.195918-44.408163 0-61.64898 67.918367-73.142857 205.844898-195.918367 364.146939-195.918367s295.706122 122.77551 364.146939 195.918367c16.195918 17.240816 16.195918 44.408163 0 61.64898-68.440816 73.142857-205.844898 195.918367-364.146939 195.918367z"  horiz-adv-x="1024" />
      
      <glyph glyph-name="zuanshi" unicode="&#58909;" d="M930.986667 445.226667l2.133333 2.986666 1.92 4.266667c0 1.066667 1.066667 2.133333 1.493333 3.413333a27.52 27.52 0 0 1 0 4.053334 22.613333 22.613333 0 0 1 0 4.053333 77.226667 77.226667 0 0 1 0 8.106667 13.44 13.44 0 0 1 0 4.053333 26.666667 26.666667 0 0 1 0 4.053333 24.533333 24.533333 0 0 1-1.28 3.626667 35.626667 35.626667 0 0 1-1.706666 4.266667l-1.066667 2.56-2.773333 4.266666-170.666667 213.333334-1.92 2.133333-2.346667 2.56-3.84 2.986667-2.773333 1.92-4.266667 2.346666-3.413333 1.28-4.266667 1.493334H288l-4.053333-1.493334-3.413334-1.28-4.266666-2.346666-2.773334-1.92-3.626666-2.986667-2.56-2.56-1.92-2.133333-170.666667-213.333334-2.773333-4.266666-1.706667-2.986667a35.626667 35.626667 0 0 1-1.706667-4.266667 24.533333 24.533333 0 0 1-1.28-3.626666 26.666667 26.666667 0 0 1 0-4.053334 13.44 13.44 0 0 1 0-4.053333 77.226667 77.226667 0 0 1 0-8.106667 22.613333 22.613333 0 0 1 0-4.053333 27.52 27.52 0 0 1 0-4.053333c0-1.28 1.066667-2.346667 1.493334-3.413334l1.92-4.266666 2.133333-2.986667 2.773333-3.84 384-426.666667 1.706667-1.493333 1.493333-1.706667 2.133334-1.706666 2.986666-2.133334 4.48-2.56 2.773334-1.28a32.64 32.64 0 0 1 5.546666-1.706666h2.346667A36.693333 36.693333 0 0 1 512 0a36.693333 36.693333 0 0 1 8.32 0h2.346667a32.64 32.64 0 0 1 5.546666 1.706667l2.773334 1.28 4.48 2.56 2.986666 2.133333 2.133334 1.706667 1.493333 1.706666 1.706667 1.493334 384 426.666666zM512 106.66666699999996L183.893333 470.826667 320 640h384l135.253333-169.173333zM320 512m42.666667 0l298.666666 0q42.666667 0 42.666667-42.666667l0 0q0-42.666667-42.666667-42.666666l-298.666666 0q-42.666667 0-42.666667 42.666666l0 0q0 42.666667 42.666667 42.666667Z"  horiz-adv-x="1024" />
      
      <glyph glyph-name="zuire" unicode="&#59860;" d="M526.62272-7.41376a312.7296 312.7296 0 0 0-120.91392 21.2992 310.8864 310.8864 0 0 0-103.13728 66.1504 308.224 308.224 0 0 0-69.26336 100.63872 306.29888 306.29888 0 0 0-24.576 119.43936 281.23136 281.23136 0 0 0 33.91488 148.11136A366.3872 366.3872 0 0 0 295.19872 515.4816c5.3248 5.65248 11.38688 12.0832 18.26816 20.02944l11.79648 12.45184a203.5712 203.5712 0 0 1 41.12384 59.31008c24.1664 54.59968 37.10976 113.4592 38.05184 173.056a31.9488 31.9488 0 0 0 18.0224 27.52512 32.5632 32.5632 0 0 0 32.9728-2.58048l19.82464-14.336a622.30528 622.30528 0 0 0 137.4208-136.8064 608.33792 608.33792 0 0 0 70.4512-154.54208 142.5408 142.5408 0 0 1 26.2144 68.8128 31.66208 31.66208 0 0 0 25.51808 27.56608 33.34144 33.34144 0 0 0 34.65216-15.52384c21.2992-37.35552 37.60128-77.4144 48.3328-118.9888 17.8176-49.84832 26.46016-102.4 25.51808-155.27936a313.91744 313.91744 0 0 0-93.26592-221.5936 318.70976 318.70976 0 0 0-223.47776-91.99616zM462.68416 716.84096a438.6816 438.6816 0 0 0-38.0928-139.79648A268.20608 268.20608 0 0 0 374.3744 505.28256l-13.312-12.86144-18.67776-20.02944a296.50944 296.50944 0 0 1-44.52352-57.05728 218.112 218.112 0 0 1-24.3712-113.33632c-0.08192-32.72704 6.47168-65.1264 19.2512-95.31392 12.77952-30.14656 31.5392-57.50784 55.13216-80.36352a248.34048 248.34048 0 0 1 178.74944-69.50912 253.37856 253.37856 0 0 1 178.5856 72.704 249.56928 249.56928 0 0 1 74.5472 176.66048A375.31648 375.31648 0 0 1 757.76 441.42592c-5.3248 15.48288-9.13408 27.56608-12.94336 37.76512a210.7392 210.7392 0 0 0-58.61376-63.85664 35.2256 35.2256 0 0 0-35.4304-3.76832 31.5392 31.5392 0 0 0-19.0464 27.60704A661.34016 661.34016 0 0 1 557.4656 617.8816a485.94944 485.94944 0 0 1-94.78144 98.95936z"  horiz-adv-x="1024" />
      
      <glyph glyph-name="zhaoxiangji" unicode="&#58979;" d="M512 608c-124.8 0-224-99.2-224-224s99.2-224 224-224 224 99.2 224 224S636.8 608 512 608zM512 208c-96 0-176 80-176 176s80 176 176 176 176-80 176-176S608 208 512 208zM768 524.8a1.6 1.6 0 1 0 102.4 0 1.6 1.6 0 1 0-102.4 0ZM864 672l-96 0-22.4 67.2c-6.4 16-25.6 28.8-41.6 28.8l-384 0c-19.2 0-35.2-12.8-41.6-28.8l-22.4-67.2-96 0c-54.4 0-96-41.6-96-96l0-448c0-54.4 44.8-96 96-96l704 0c54.4 0 96 41.6 96 96l0 448C960 630.4 918.4 672 864 672zM912 128c0-25.6-22.4-48-48-48l-704 0c-25.6 0-48 22.4-48 48l0 448c0 25.6 22.4 48 48 48l96 0 35.2 0 9.6 32 22.4 64 377.6 0 22.4-64 9.6-32 35.2 0 96 0c25.6 0 48-22.4 48-48L912 128z"  horiz-adv-x="1024" />
      
      <glyph glyph-name="qianbi" unicode="&#59037;" d="M592.896 353.28m-402.944 0a402.944 402.944 0 1 1 805.888 0 402.944 402.944 0 1 1-805.888 0ZM510.464-18.944c222.208 0 402.944 180.736 402.944 402.944 0 222.208-180.736 402.944-402.944 402.944-218.624 0-396.8-174.592-402.432-392.192v-20.992c5.632-217.6 183.808-392.704 402.432-392.704zM361.472 408.064c-16.384 0-29.696 13.312-29.696 29.696 0 16.384 13.312 29.696 29.696 29.696h83.456l-81.92 81.92c-11.776 11.776-11.776 29.696 0 41.984 11.776 11.776 29.696 11.776 41.984 0l105.984-105.984 105.984 105.984c11.776 11.776 29.696 11.776 41.984 0 11.776-11.776 11.776-29.696 0-41.984l-81.92-81.92H660.48c16.384 0 29.696-13.312 29.696-29.696 0-16.384-13.312-29.696-29.696-29.696h-119.296V348.16H660.48c16.384 0 29.696-13.312 29.696-29.696 0-16.384-13.312-29.696-29.696-29.696h-119.296v-119.296c0-16.384-13.312-29.696-29.696-29.696-16.384 0-29.696 13.312-29.696 29.696v119.296H361.472c-16.384 0-29.696 13.312-29.696 29.696 0 16.384 13.312 29.696 29.696 29.696h119.296V408.064H361.472z"  horiz-adv-x="1024" />
      
      <glyph glyph-name="daima" unicode="&#59139;" d="M904-128H120c-66.168 0-120 53.832-120 120V776C0 842.168 53.832 896 120 896h784c66.168 0 120-53.832 120-120v-784c0-66.168-53.832-120-120-120zM120 892C56.038 892 4 839.962 4 776v-784c0-63.962 52.038-116 116-116h784c63.962 0 116 52.038 116 116V776c0 63.962-52.038 116-116 116H120zM268 124h480v-60H268zM752 192H272c-44.112 0-80 35.888-80 80V624c0 44.112 35.888 80 80 80h480c44.112 0 80-35.888 80-80v-352c0-44.112-35.888-80-80-80zM272 644c-11.028 0-20-8.972-20-20v-352c0-11.028 8.972-20 20-20h480c11.028 0 20 8.972 20 20V624c0 11.028-8.972 20-20 20H272zM521.726 554.322l38.572-10.588L504.3 339.74l-38.572 10.588zM368.58 510.754l22.626-22.628-62.3-62.3-22.628 22.628zM329.428 470.184l62.3-62.3-22.628-22.628-62.3 62.3zM657.422 510.75l62.3-62.3-22.626-22.626-62.3 62.3zM696.58 470.18l22.624-22.632-62.308-62.29-22.624 22.63z"  horiz-adv-x="1024" />
      
      <glyph glyph-name="wode_shimingrenzheng_48" unicode="&#59307;" d="M920.981333 353.066667a1198.890667 1198.890667 0 0 0-94.933333 28.864 502.144 502.144 0 0 0-80.149333 36.501333l-8.533334 4.928a23.893333 23.893333 0 0 1-24.277333 0 499.328 499.328 0 0 0-88.533333-41.450667c-29.354667-10.368-61.013333-19.989333-94.933334-28.864A23.552 23.552 0 0 1 512 330.325333v-165.290666C512 65.92 646.613333-42.666667 725.333333-42.666667c78.762667 0 213.333333 108.586667 213.333334 207.701334l-0.085334 165.376a23.530667 23.530667 0 0 1-17.6 22.656zM533.653333 804.650667l15.36-8.938667a899.52 899.52 0 0 1 144.277334-66.389333c52.885333-18.837333 109.845333-36.352 170.88-52.48a42.688 42.688 0 0 0 31.68-41.173334L896 334.976C896 154.752 653.781333-42.666667 512.021333-42.666667 370.304-42.666667 128 154.752 128 334.976V635.498667c0 19.370667 13.013333 36.309333 31.701333 41.322666a2110.997333 2110.997333 0 0 1 170.88 52.48 894.677333 894.677333 0 0 1 159.36 75.306667 42.645333 42.645333 0 0 0 43.733334 0.042667z m-21.781333-61.376l-3.904-2.282667a958.208 958.208 0 0 0-155.861333-71.978667 2132.714667 2132.714667 0 0 0-155.157334-48.469333L192 619.242667v-284.266667c0-129.386667 193.770667-308.970667 315.306667-313.557333l4.714666-0.085334C633.216 21.333333 832 203.882667 832 334.933333l-0.149333 284.330667-4.8 1.28a2205.994667 2205.994667 0 0 0-136.917334 42.069333l-18.346666 6.421334a964.842667 964.842667 0 0 0-155.008 71.381333l-4.906667 2.858667z m230.613333-387.392a32 32 0 1 0 45.226667-45.248l-150.826667-150.848a32 32 0 0 0-45.269333 0l-90.496 90.496a32 32 0 0 0 45.226667 45.269333l67.925333-67.904zM501.333333 661.333333a138.666667 138.666667 0 0 0 88.96-245.056c19.114667-7.957333 37.077333-18.709333 53.312-31.978666a32 32 0 0 0-40.512-49.536 151.466667 151.466667 0 0 1-247.253333-117.333334 32 32 0 0 0-64-0.021333c0 86.613333 51.093333 161.28 124.8 195.52A138.666667 138.666667 0 0 0 501.333333 661.333333z m0-64a74.666667 74.666667 0 1 1 0-149.333333 74.666667 74.666667 0 0 1 0 149.333333z"  horiz-adv-x="1024" />
      
      <glyph glyph-name="shengxu" unicode="&#59302;" d="M754.807 523.149l-189.142 188.967c-12.311 12.321-32.258 12.321-44.576 0l-8.961-8.953v-594.751h-0.277v-48.616c0-17.406 14.122-31.487 31.527-31.487 17.409 0 31.521 14.081 31.521 31.487v554.022l135.332-135.216c12.318-12.308 32.264-12.308 44.576 0 6.156 6.13 9.238 14.191 9.238 22.252s-3.082 16.12-9.238 22.295z"  horiz-adv-x="1024" />
      
      <glyph glyph-name="shengxu1" unicode="&#58883;" d="M269.193 244.851l189.142-188.967c12.311-12.321 32.258-12.321 44.576 0l8.961 8.953 0.277 643.367c0 17.406-14.122 31.487-31.527 31.487-17.409 0-31.521-14.081-31.521-31.487v-554.022l-135.332 135.216c-12.318 12.308-32.264 12.308-44.576 0-6.156-6.131-9.238-14.191-9.238-22.252s3.082-16.12 9.238-22.295z"  horiz-adv-x="1024" />
      
      <glyph glyph-name="gengduo" unicode="&#59194;" d="M223.962372 288.102133c-52.980346 0-95.983874 43.003528-95.983874 95.983874s43.003528 95.983874 95.983874 95.983874 95.983874-43.003528 95.983874-95.983874S276.942718 288.102133 223.962372 288.102133zM511.913993 288.102133c-52.980346 0-95.983874 43.003528-95.983874 95.983874s43.003528 95.983874 95.983874 95.983874 95.983874-43.003528 95.983874-95.983874S564.894339 288.102133 511.913993 288.102133zM800.037628 288.102133c-52.980346 0-95.983874 43.003528-95.983874 95.983874s43.003528 95.983874 95.983874 95.983874 95.983874-43.003528 95.983874-95.983874S852.84596 288.102133 800.037628 288.102133z"  horiz-adv-x="1024" />
      
      <glyph glyph-name="file" unicode="&#59114;" d="M642 222.9h-340.4c-9.9 0-17.9 8-17.9 17.9s8 17.9 17.9 17.9h340.4c9.9 0 17.9-8 17.9-17.9s-8-17.9-17.9-17.9zM642 384.2h-340.4c-9.9 0-17.9 8-17.9 17.9s8 17.9 17.9 17.9h340.4c9.9 0 17.9-8 17.9-17.9s-8-17.9-17.9-17.9zM480.7 545.4h-179.1c-9.9 0-17.9 8-17.9 17.9s8 17.9 17.9 17.9h179.2c9.9 0 17.9-8 17.9-17.9s-8.1-17.9-18-17.9zM874.9 545.4h-179.2c-49.4 0-89.6 40.2-89.6 89.6v179.1c0 9.9 8 17.9 17.9 17.9s17.9-8 17.9-17.9v-179.1c0-29.6 24.1-53.7 53.7-53.7h179.2c9.9 0 17.9-8 17.9-17.9s-7.9-18-17.8-18zM794.3-63.7h-573.3c-49.4 0-89.6 40.2-89.6 89.6v716.6c0 49.4 40.2 89.6 89.6 89.6h403.1c4.8 0 9.3-1.9 12.7-5.2l250.8-250.9c3.4-3.4 5.2-7.9 5.2-12.7v-537.5c0-52.7-51.9-89.5-98.5-89.5zM221 796.2c-29.6 0-53.7-24.1-53.7-53.7v-716.6c0-29.6 24.1-53.7 53.7-53.7h573.3c29 0 62.7 23.5 62.7 53.7v530l-240.3 240.3h-395.7z"  horiz-adv-x="1024" />
      
      <glyph glyph-name="baocun" unicode="&#59071;" d="M512-128C230.4-128 0 102.4 0 384S230.4 896 512 896s512-230.4 512-512-230.4-512-512-512z m0 938.666667C277.333333 810.666667 85.333333 618.666667 85.333333 384s192-426.666667 426.666667-426.666667 426.666667 192 426.666667 426.666667S746.666667 810.666667 512 810.666667zM708.266667 520.533333c-17.066667 17.066667-44.8 17.066667-59.733334 0l-181.333333-181.333333-91.733333 91.733333c-14.933333 14.933333-40.533333 14.933333-55.466667 0l-6.4-4.266666c-14.933333-14.933333-14.933333-40.533333 0-55.466667l125.866667-125.866667c14.933333-14.933333 40.533333-14.933333 55.466666 0l4.266667 4.266667 209.066667 209.066667c17.066667 17.066667 17.066667 44.8 0 61.866666z"  horiz-adv-x="1024" />
      
      <glyph glyph-name="daoxu" unicode="&#58882;" d="M359.2 36c1.6-4 4-7.2 7.2-10.4 8.8-8.8 22.4-12 33.6-8 2.4 0.8 5.6 2.4 8 4 1.6 0.8 3.2 2.4 4 3.2 1.6 1.6 150.4 152 150.4 152 12.8 12.8 12.8 33.6 0 46.4s-32.8 12.8-45.6 0L421.6 128V720c0 17.6-14.4 32.8-32 32.8s-32-14.4-32-32.8v-671.2c-1.6-4.8-0.8-8.8 1.6-12.8z"  horiz-adv-x="1024" />
      
      <glyph glyph-name="wenjianjia-" unicode="&#59027;" d="M863.1 640.9H551.3c-25.1 0-49.2 9.8-67.1 27.4l-75 73.4c-17.9 17.5-42 27.4-67.1 27.4H161c-53 0-96-43-96-96v-512.8c0-53 43-96 96-96h702c53 0 96 43 96 96V544.9c0.1 53-42.9 96-95.9 96z m-31-161.1c0-17.7-14.3-32-32-32H224c-17.7 0-32 14.3-32 32v0.1c0 17.7 14.3 32 32 32h576.1c17.7 0 32-14.3 32-32v-0.1z"  horiz-adv-x="1024" />
      
      <glyph glyph-name="paixu" unicode="&#59369;" d="M768 533.333333a21.333333 21.333333 0 0 0 21.333333-21.333333v-387.648l61.418667 61.397333a21.333333 21.333333 0 0 0 30.165333 0l30.165334-30.165333a21.333333 21.333333 0 0 0 0-30.165333l-116.053334-116.053334a53.333333 53.333333 0 0 0-90.922666 34.218667L704 47.082667V512a21.333333 21.333333 0 0 0 21.333333 21.333333h42.666667zM554.666667 106.666667a21.333333 21.333333 0 0 0 21.333333-21.333334v-42.666666a21.333333 21.333333 0 0 0-21.333333-21.333334H128a21.333333 21.333333 0 0 0-21.333333 21.333334v42.666666a21.333333 21.333333 0 0 0 21.333333 21.333334h426.666667z m0 320a21.333333 21.333333 0 0 0 21.333333-21.333334v-42.666666a21.333333 21.333333 0 0 0-21.333333-21.333334H128a21.333333 21.333333 0 0 0-21.333333 21.333334v42.666666a21.333333 21.333333 0 0 0 21.333333 21.333334h426.666667zM896 746.666667a21.333333 21.333333 0 0 0 21.333333-21.333334v-42.666666a21.333333 21.333333 0 0 0-21.333333-21.333334H128a21.333333 21.333333 0 0 0-21.333333 21.333334V725.333333a21.333333 21.333333 0 0 0 21.333333 21.333334h768z"  horiz-adv-x="1024" />
      
      <glyph glyph-name="paixu-shengxu" unicode="&#58954;" d="M384 755.008V-32c0-9.344 3.008-17.024 8.96-23.04 6.016-5.952 13.696-8.96 23.04-8.96a31.168 31.168 0 0 1 23.04 8.96 31.168 31.168 0 0 1 8.96 23.04V676.992l243.008-241.984a29.568 29.568 0 0 1 44.48 0 31.744 31.744 0 0 1 0.576 44.992L439.04 776.96a32.256 32.256 0 0 1-16.512 8.96 29.568 29.568 0 0 1-18.496-1.92 35.52 35.52 0 0 1-14.464-11.52 28.8 28.8 0 0 1-5.568-17.536v0.064z"  horiz-adv-x="1024" />
      
      <glyph glyph-name="xiangqing" unicode="&#58970;" d="M415.168-46.464h-251.2a124.384 124.384 0 0 0-125.6 125.6V732.224a124.384 124.384 0 0 0 125.6 125.6h552.608a124.384 124.384 0 0 0 125.6-125.6v-150.72c0-15.072-10.048-25.12-25.12-25.12s-25.12 10.048-25.12 25.12v150.72c0 40.192-35.168 75.36-75.36 75.36H163.968c-40.192 0-75.36-35.168-75.36-75.36v-653.088c0-40.192 35.168-75.36 75.36-75.36h251.2c15.072 0 25.12-10.048 25.12-25.12s-10.048-25.12-25.12-25.12z m0-4.256h-251.2c-72.832 0-129.856 57.024-129.856 129.856V732.224c0 72.832 57.024 129.856 129.856 129.856h552.608c72.832 0 129.856-57.024 129.856-129.856v-150.72c0-17.312-12.096-29.376-29.376-29.376s-29.376 12.096-29.376 29.376v150.72c0 37.856-33.216 71.104-71.104 71.104H163.968c-37.856 0-71.104-33.216-71.104-71.104v-653.088c0-37.856 33.216-71.072 71.104-71.072h251.2c17.312 0 29.376-12.096 29.376-29.376s-12.096-29.376-29.376-29.376zM164 853.568c-68.032 0-121.312-53.28-121.312-121.344v-653.088a120 120 0 0 1 121.312-121.312h251.2c12.672 0 20.864 8.192 20.864 20.864s-8.192 20.864-20.864 20.864h-251.2c-42.4 0-79.616 37.216-79.616 79.616V732.256c0 42.4 37.216 79.616 79.616 79.616h552.608c42.432 0 79.616-37.216 79.616-79.616v-150.72c0-12.672 8.192-20.864 20.864-20.864s20.864 8.192 20.864 20.864v150.72a120 120 0 0 1-121.312 121.312H164.032z m557.632-498.112c95.456 0 175.84-80.384 175.84-175.84s-80.384-175.84-175.84-175.84-175.84 80.384-175.84 175.84 80.384 175.84 175.84 175.84m0 50.24c-125.6 0-226.08-100.48-226.08-226.08s100.48-226.08 226.08-226.08 226.08 100.48 226.08 226.08-100.48 226.08-226.08 226.08z m0-456.416c-61.888 0-119.808 23.872-163.136 67.2s-67.2 101.28-67.2 163.136 23.872 119.808 67.2 163.136c43.328 43.328 101.28 67.2 163.136 67.2s119.808-23.872 163.136-67.2c43.328-43.328 67.2-101.28 67.2-163.136s-23.872-119.808-67.2-163.136a229.056 229.056 0 0 0-163.136-67.2z m0 452.128c-122.304 0-221.792-99.488-221.792-221.792s99.488-221.792 221.792-221.792 221.792 99.488 221.792 221.792a222.048 222.048 0 0 1-221.792 221.792z m0-401.888c-97.632 0-180.096 82.464-180.096 180.096s82.464 180.096 180.096 180.096 180.096-82.464 180.096-180.096-82.464-180.096-180.096-180.096z m0 351.648c-92.992 0-171.552-78.56-171.552-171.552s78.56-171.552 171.552-171.552 171.552 78.56 171.552 171.552c0 92.992-78.56 171.552-171.552 171.552z m-75.36-136.384c-5.024 0-15.072 5.024-20.096 10.048a24.288 24.288 0 0 0 0 35.168c30.144 30.144 60.288 40.192 95.456 40.192 30.144 0 65.312-10.048 85.408-30.144 10.048-10.048 10.048-25.12 0-35.168s-25.12-10.048-35.168 0c-15.072 15.072-30.144 20.096-50.24 20.096s-40.192-10.048-55.264-30.144c-5.024-5.024-15.072-10.048-20.096-10.048z m0-4.256c-6.752 0-17.792 5.952-23.104 11.296a29.12 29.12 0 0 0-8.8 20.608 29.12 29.12 0 0 0 8.8 20.608c28.672 28.672 59.04 41.44 98.464 41.44 34.656 0 69.344-12.32 88.416-31.392a28.512 28.512 0 0 0 0-41.216c-5.664-5.664-12.992-8.768-20.608-8.768s-14.944 3.136-20.608 8.768c-13.376 13.376-27.072 18.848-47.232 18.848-19.68 0-38.08-10.112-51.84-28.448l-0.384-0.448c-5.344-5.344-16.352-11.296-23.104-11.296z m75.36 85.408c-36.992 0-65.504-12-92.448-38.944-4.064-4.064-6.272-9.216-6.272-14.56s2.24-10.496 6.272-14.56c4.448-4.448 13.536-8.8 17.088-8.8 3.488 0 12.352 4.224 16.864 8.608 15.392 20.384 36.128 31.584 58.464 31.584s38.304-6.368 53.248-21.344c4.064-4.064 9.216-6.272 14.56-6.272s10.528 2.24 14.56 6.272a19.904 19.904 0 0 1 0 29.12c-17.568 17.536-49.888 28.896-82.4 28.896z m231.072-387.616l-105.504 105.504c-10.048 10.048-10.048 25.12 0 35.168s25.12 10.048 35.168 0l105.504-105.504c10.048-10.048 10.048-25.12 0-35.168s-25.12-10.048-35.168 0z m17.6-11.776a29.12 29.12 0 0 0-20.608 8.8l-105.504 105.504a29.12 29.12 0 0 0-8.8 20.608c0 7.616 3.104 14.944 8.8 20.608 5.664 5.664 12.992 8.8 20.608 8.8s14.944-3.104 20.608-8.8l105.504-105.504a28.512 28.512 0 0 0 0-41.216 29.12 29.12 0 0 0-20.608-8.768z m-105.504 155.712c-5.344 0-10.528-2.24-14.56-6.272s-6.272-9.216-6.272-14.56 2.24-10.528 6.272-14.56l105.504-105.504c4.064-4.064 9.216-6.272 14.56-6.272s10.528 2.24 14.56 6.272 6.272 9.216 6.272 14.56-2.24 10.528-6.272 14.56l-105.504 105.504a20.544 20.544 0 0 1-14.56 6.272zM616.128 606.624H264.48c-15.072 0-25.12 10.048-25.12 25.12s10.048 25.12 25.12 25.12h351.648c15.072 0 25.12-10.048 25.12-25.12s-10.048-25.12-25.12-25.12z m0-4.256H264.48c-17.312 0-29.376 12.096-29.376 29.376s12.096 29.376 29.376 29.376h351.648c17.312 0 29.376-12.096 29.376-29.376s-12.096-29.376-29.376-29.376zM264.48 652.608c-12.672 0-20.864-8.192-20.864-20.864s8.192-20.864 20.864-20.864h351.648c12.672 0 20.864 8.192 20.864 20.864s-8.192 20.864-20.864 20.864H264.48z m351.648-196.672H264.48c-15.072 0-25.12 10.048-25.12 25.12s10.048 25.12 25.12 25.12h351.648c15.072 0 25.12-10.048 25.12-25.12s-10.048-25.12-25.12-25.12z m0-4.288H264.48c-17.312 0-29.376 12.096-29.376 29.376s12.096 29.376 29.376 29.376h351.648c17.312 0 29.376-12.096 29.376-29.376s-12.096-29.376-29.376-29.376z m-351.648 50.24c-12.672 0-20.864-8.192-20.864-20.864s8.192-20.864 20.864-20.864h351.648c12.672 0 20.864 8.192 20.864 20.864s-8.192 20.864-20.864 20.864H264.48z m316.48-327.296a25.088 25.088 0 1 1 50.208-0.032 25.088 25.088 0 0 1-50.208 0.032z m25.12-29.376c-16.192 0-29.376 13.184-29.376 29.376s13.184 29.376 29.376 29.376 29.376-13.184 29.376-29.376-13.184-29.376-29.376-29.376z m0 50.24a20.896 20.896 0 1 1 0.064-41.792 20.896 20.896 0 0 1-0.064 41.792z"  horiz-adv-x="1024" />
      
      <glyph glyph-name="gerenfenxiang" unicode="&#59155;" d="M960 202.24l-221.184 211.456V276.48c-165.376 0-278.016-138.24-310.272-320C501.76 70.656 619.008 133.12 738.816 133.12v-133.12l221.184 202.24zM656.896 349.184V368.64c-11.776 2.56-23.552 3.584-35.84 3.584H249.344c-102.4 0-185.344-83.456-185.344-185.856v-154.112c0-17.408 13.824-31.232 31.232-31.232h259.584c41.472 184.832 154.112 313.856 302.08 348.16zM437.76 406.016c112.128 0 202.752 90.112 202.752 202.24s-90.624 202.752-202.752 202.752C326.144 811.008 235.52 719.872 235.52 608.256s90.112-202.24 202.24-202.24z"  horiz-adv-x="1024" />
      
      <glyph glyph-name="file-copy" unicode="&#60443;" d="M642 222.9H301.6c-9.9 0-17.9 8-17.9 17.9s8 17.9 17.9 17.9H642c9.9 0 17.9-8 17.9-17.9s-8-17.9-17.9-17.9zM642 384.2H301.6c-9.9 0-17.9 8-17.9 17.9 0 9.9 8 17.9 17.9 17.9H642c9.9 0 17.9-8 17.9-17.9 0-9.9-8-17.9-17.9-17.9zM480.7 545.4H301.6c-9.9 0-17.9 8-17.9 17.9s8 17.9 17.9 17.9h179.2c9.9 0 17.9-8 17.9-17.9s-8.1-17.9-18-17.9zM874.9 545.4H695.7c-49.4 0-89.6 40.2-89.6 89.6V814.1c0 9.9 8 17.9 17.9 17.9 9.9 0 17.9-8 17.9-17.9V635c0-29.6 24.1-53.7 53.7-53.7h179.2c9.9 0 17.9-8 17.9-17.9s-7.9-18-17.8-18zM794.3-63.7H221c-49.4 0-89.6 40.2-89.6 89.6V742.5c0 49.4 40.2 89.6 89.6 89.6h403.1c4.8 0 9.3-1.9 12.7-5.2L887.6 576c3.4-3.4 5.2-7.9 5.2-12.7v-537.5c0-52.7-51.9-89.5-98.5-89.5zM221 796.2c-29.6 0-53.7-24.1-53.7-53.7v-716.6c0-29.6 24.1-53.7 53.7-53.7h573.3c29 0 62.7 23.5 62.7 53.7v530L616.7 796.2H221z"  horiz-adv-x="1024" />
      
      <glyph glyph-name="wenjianjia--copy" unicode="&#60444;" d="M863.1 640.9H551.3c-25.1 0-49.2 9.8-67.1 27.4l-75 73.4c-17.9 17.5-42 27.4-67.1 27.4H161c-53 0-96-43-96-96v-512.8c0-53 43-96 96-96h702c53 0 96 43 96 96V544.9c0.1 53-42.9 96-95.9 96z m-31-161.1c0-17.7-14.3-32-32-32H224c-17.7 0-32 14.3-32 32v0.1c0 17.7 14.3 32 32 32h576.1c17.7 0 32-14.3 32-32v-0.1z"  horiz-adv-x="1024" />
      
      <glyph glyph-name="wenjianjia--copy-copy" unicode="&#60446;" d="M863.1 598.233333H551.3c-25.1 0-49.2 9.8-67.1 27.4l-75 73.4c-17.9 17.5-42 27.4-67.1 27.4H161c-53 0-96-43-96-96v-512.8c0-53 43-96 96-96h702c53 0 96 43 96 96V502.233333c0.1 53-42.9 96-95.9 96z m-31-161.1c0-17.7-14.3-32-32-32H224c-17.7 0-32 14.3-32 32v0.1c0 17.7 14.3 32 32 32h576.1c17.7 0 32-14.3 32-32v-0.1z"  horiz-adv-x="1024" />
      
      <glyph glyph-name="sousuo" unicode="&#58913;" d="M849.6 92.79999999999995L707.9 234.5c45.6 56.1 70.5 125.6 70.5 198.9 0 84.3-32.8 163.6-92.5 223.3-59.6 59.6-138.9 92.5-223.3 92.5-84.3 0-163.6-32.8-223.3-92.5-59.6-59.6-92.5-138.9-92.5-223.3s32.8-163.6 92.5-223.3c59.6-59.6 138.9-92.5 223.3-92.5 71.1 0 138.7 23.4 193.9 66.5l142.2-142.2c7-7 16.2-10.5 25.5-10.5s18.4 3.5 25.5 10.5c13.9 14 13.9 36.8-0.1 50.9zM218.9 433.3c0 134.4 109.3 243.7 243.7 243.7 134.4 0 243.7-109.3 243.7-243.7S597 189.60000000000002 462.6 189.60000000000002c-134.4 0-243.7 109.3-243.7 243.7z"  horiz-adv-x="1024" />
      
      <glyph glyph-name="sousuo-copy" unicode="&#60445;" d="M849.6 92.8L707.9 234.5c45.6 56.1 70.5 125.6 70.5 198.9 0 84.3-32.8 163.6-92.5 223.3-59.6 59.6-138.9 92.5-223.3 92.5-84.3 0-163.6-32.8-223.3-92.5-59.6-59.6-92.5-138.9-92.5-223.3s32.8-163.6 92.5-223.3c59.6-59.6 138.9-92.5 223.3-92.5 71.1 0 138.7 23.4 193.9 66.5l142.2-142.2c7-7 16.2-10.5 25.5-10.5s18.4 3.5 25.5 10.5c13.9 14 13.9 36.8-0.1 50.9zM218.9 433.3c0 134.4 109.3 243.7 243.7 243.7 134.4 0 243.7-109.3 243.7-243.7S597 189.6 462.6 189.6c-134.4 0-243.7 109.3-243.7 243.7z"  horiz-adv-x="1024" />
      
      <glyph glyph-name="xiazai" unicode="&#58887;" d="M552 309.822l60.268 78.53c13.45 17.526 38.56 20.83 56.085 7.38s20.829-38.56 7.38-56.085l-132-172c-16.012-20.863-47.454-20.863-63.465 0l-132 172c-13.45 17.526-10.146 42.636 7.38 56.085 17.525 13.45 42.635 10.146 56.084-7.38L472 309.823V744c0 22.091 17.909 40 40 40s40-17.909 40-40v-434.178zM832 384c0 22.091 17.909 40 40 40s40-17.909 40-40v-288c0-61.856-50.144-112-112-112H224c-61.856 0-112 50.144-112 112V384c0 22.091 17.909 40 40 40s40-17.909 40-40v-288c0-17.673 14.327-32 32-32h576c17.673 0 32 14.327 32 32V384z"  horiz-adv-x="1024" />
      
      <glyph glyph-name="guanwang" unicode="&#58938;" d="M827.000472 745.843768H197.098553c-40.690056 0-73.837565-33.147509-73.837565-73.837565v-403.427021c0-40.690056 33.147509-73.837565 73.837565-73.837565h230.643148L418.512006 71.877496h-67.882923c-13.695677 0-24.81101-11.115332-24.81101-24.81101s11.115332-24.81101 24.81101-24.81101h322.741616c13.695677 0 24.81101 11.115332 24.81101 24.81101s-11.115332 24.81101-24.81101 24.81101h-67.882923l-9.229696 122.864121h230.643148c40.690056 0 73.837565 33.147509 73.837566 73.837565V671.906959c0.099244 40.7893-33.048265 73.936809-73.738322 73.936809z m-629.901919-49.62202h629.901919c13.397945 0 24.215546-10.916844 24.215546-24.215545v-318.275635H172.883008V671.906959c0 13.397945 10.8176 24.31479 24.215545 24.314789z m358.667959-624.443496h-87.433999l9.229696 122.864121H546.536817l9.229695-122.864121z m271.23396 172.48614H197.098553c-13.397945 0-24.215546 10.916844-24.215545 24.215546v35.529366H851.216018v-35.529366c0-13.298701-10.8176-24.215546-24.215546-24.215546z"  horiz-adv-x="1024" />
      
      <glyph glyph-name="huishouzhan1" unicode="&#58952;" d="M512 842.666667c126.997333 0 232.469333-88.32 244.245333-202.666667H896a32 32 0 0 0 3.072-63.850667L896 576h-54.592l-34.986667-564.906667c-2.133333-35.2-31.082667-62.421333-66.218666-64.32l-3.946667-0.106666H287.744c-35.584 0-65.728 25.962667-69.802667 60.501333l-0.341333 3.861333L182.570667 576H128a32 32 0 0 0-3.072 63.850667L128 640h139.754667C279.530667 754.346667 385.002667 842.666667 512 842.666667zM777.258667 576H246.72l34.773333-561.066667c0.085333-1.706667 1.813333-3.541333 4.522667-4.096l1.706667-0.170666h448.533333c3.072 0 5.290667 1.536 6.016 3.264l0.256 1.066666L777.258667 576z m-150.976-243.349333l1.877333-2.389334 1.642667-2.602666 80.64-141.12a32 32 0 0 0-24.981334-47.765334L682.666667 138.666667h-71.338667a32 32 0 0 0-3.093333 63.850666l3.093333 0.149334h16.192l-53.269333 93.226666a32 32 0 0 0 52.053333 36.757334z m-233.92-72.704a32 32 0 0 0 13.312-40.896l-1.408-2.773334-7.808-13.610666h110.528a32 32 0 0 0 31.850666-28.928l0.149334-3.072a32 32 0 0 0-28.906667-31.850667l-3.093333-0.149333H341.333333a32 32 0 0 0-29.077333 45.397333l1.28 2.474667 35.157333 61.504a32 32 0 0 0 43.669334 11.904z m143.808 230.4l1.92-2.453334 1.706666-2.688 37.525334-65.685333a32 32 0 0 0-53.909334-34.346667l-1.664 2.602667-9.749333 17.066667-57.301333-100.266667a32 32 0 0 0-40.896-13.312l-2.773334 1.408a32 32 0 0 0-13.290666 40.896l1.408 2.773333 85.077333 148.864c11.2 19.626667 38.016 21.333333 51.946667 5.12zM512 778.666667c-92.544 0-167.914667-60.970667-179.733333-138.666667h359.466666C679.893333 717.696 604.544 778.666667 512 778.666667z"  horiz-adv-x="1024" />
      
      <glyph glyph-name="huishouzhan1-copy" unicode="&#60441;" d="M512 842.666667c126.997333 0 232.469333-88.32 244.245333-202.666667H896a32 32 0 0 0 3.072-63.850667L896 576h-54.592l-34.986667-564.906667c-2.133333-35.2-31.082667-62.421333-66.218666-64.32l-3.946667-0.106666H287.744c-35.584 0-65.728 25.962667-69.802667 60.501333l-0.341333 3.861333L182.570667 576H128a32 32 0 0 0-3.072 63.850667L128 640h139.754667C279.530667 754.346667 385.002667 842.666667 512 842.666667zM777.258667 576H246.72l34.773333-561.066667c0.085333-1.706667 1.813333-3.541333 4.522667-4.096l1.706667-0.170666h448.533333c3.072 0 5.290667 1.536 6.016 3.264l0.256 1.066666L777.258667 576z m-150.976-243.349333l1.877333-2.389334 1.642667-2.602666 80.64-141.12a32 32 0 0 0-24.981334-47.765334L682.666667 138.666667h-71.338667a32 32 0 0 0-3.093333 63.850666l3.093333 0.149334h16.192l-53.269333 93.226666a32 32 0 0 0 52.053333 36.757334z m-233.92-72.704a32 32 0 0 0 13.312-40.896l-1.408-2.773334-7.808-13.610666h110.528a32 32 0 0 0 31.850666-28.928l0.149334-3.072a32 32 0 0 0-28.906667-31.850667l-3.093333-0.149333H341.333333a32 32 0 0 0-29.077333 45.397333l1.28 2.474667 35.157333 61.504a32 32 0 0 0 43.669334 11.904z m143.808 230.4l1.92-2.453334 1.706666-2.688 37.525334-65.685333a32 32 0 0 0-53.909334-34.346667l-1.664 2.602667-9.749333 17.066667-57.301333-100.266667a32 32 0 0 0-40.896-13.312l-2.773334 1.408a32 32 0 0 0-13.290666 40.896l1.408 2.773333 85.077333 148.864c11.2 19.626667 38.016 21.333333 51.946667 5.12zM512 778.666667c-92.544 0-167.914667-60.970667-179.733333-138.666667h359.466666C679.893333 717.696 604.544 778.666667 512 778.666667z"  horiz-adv-x="1024" />
      
      <glyph glyph-name="zichan-huishouzhan" unicode="&#58984;" d="M793.6 762.88V896h-563.2v-133.12H0v-102.4h1024v102.4zM675.84 544.256v-541.696h-102.4V544.256H450.56v-541.696h-102.4V544.256H128V-76.8a51.2 51.2 0 0 1 51.2-51.2h665.6a51.2 51.2 0 0 1 51.2 51.2V544.256h-220.16z"  horiz-adv-x="1024" />
      
      <glyph glyph-name="zichan-huishouzhan-copy" unicode="&#60442;" d="M793.6 762.88V896h-563.2v-133.12H0v-102.4h1024v102.4zM675.84 544.256v-541.696h-102.4V544.256H450.56v-541.696h-102.4V544.256H128V-76.8a51.2 51.2 0 0 1 51.2-51.2h665.6a51.2 51.2 0 0 1 51.2 51.2V544.256h-220.16z"  horiz-adv-x="1024" />
      
      <glyph glyph-name="wenjianjia1" unicode="&#60439;" d="M912 688H427.872l-50.368 94.176A63.936 63.936 0 0 1 321.056 816H112c-35.296 0-64-28.704-64-64v-736c0-35.296 28.704-64 64-64h800c35.296 0 64 28.704 64 64v608c0 35.296-28.704 64-64 64z m-800 64h209.056l68.448-128H912v-97.984c-0.416 0-0.8 0.128-1.216 0.128H113.248c-0.416 0-0.8-0.128-1.248-0.128V752z m0-736v96l1.248 350.144 798.752-1.216V112h0.064v-96H112z"  horiz-adv-x="1024" />
      
      <glyph glyph-name="wenjianjia1-copy" unicode="&#60440;" d="M912 688H427.872l-50.368 94.176A63.936 63.936 0 0 1 321.056 816H112c-35.296 0-64-28.704-64-64v-736c0-35.296 28.704-64 64-64h800c35.296 0 64 28.704 64 64v608c0 35.296-28.704 64-64 64z m-800 64h209.056l68.448-128H912v-97.984c-0.416 0-0.8 0.128-1.216 0.128H113.248c-0.416 0-0.8-0.128-1.248-0.128V752z m0-736v96l1.248 350.144 798.752-1.216V112h0.064v-96H112z"  horiz-adv-x="1024" />
      
      <glyph glyph-name="a-3lie" unicode="&#58983;" d="M0 896h292.571429v-1024H0V896z m438.857143 0h292.571428v-1024H438.857143V896z m438.857143 0h292.571428v-1024h-292.571428V896z"  horiz-adv-x="1170" />
      
      <glyph glyph-name="fangkuang" unicode="&#58921;" d="M896 768v-768H128V768h768m0 64H128c-32 0-64-32-64-64v-768c0-32 32-64 64-64h768c32 0 64 32 64 64V768c0 32-32 64-64 64z"  horiz-adv-x="1024" />
      
      <glyph glyph-name="2lie-01" unicode="&#58981;" d="M313.0112 887.5392V-128H0V887.5392h313.0112zM1024 896v-1015.5392H397.973333V896H1024z"  horiz-adv-x="1024" />
      
      <glyph glyph-name="xinzeng-copy" unicode="&#59507;" d="M921.6 437.248h-357.888V795.136c0 27.648-22.016 49.664-49.664 49.664s-49.664-22.016-49.664-49.664v-357.888H106.496c-27.648 0-49.664-22.016-49.664-49.664s22.016-49.664 49.664-49.664h357.888v-358.4c0-27.648 22.016-49.664 49.664-49.664s49.664 22.016 49.664 49.664v358.4H921.6c27.648 0 49.664 22.016 49.664 49.664s-22.016 49.664-49.664 49.664z"  horiz-adv-x="1024" />
      
      </font>
</defs>
</svg>
